<?xml version="1.0" standalone="no"?>
<!DOCTYPE svg PUBLIC "-//W3C//DTD SVG 1.1//EN" "http://www.w3.org/Graphics/SVG/1.1/DTD/svg11.dtd">
<svg xmlns="http://www.w3.org/2000/svg">
<defs >
<font id="RockSalt" horiz-adv-x="773" ><font-face
    font-family="Rock Salt"
    units-per-em="1024"
    panose-1="0 0 0 0 0 0 0 0 0 0"
    ascent="1623"
    descent="-788"
    alphabetic="0" />
<glyph unicode=" " glyph-name="space" horiz-adv-x="420" />
<glyph unicode="!" glyph-name="exclam" horiz-adv-x="314" d="M263 838Q263 817 260 796T257 754V740Q257 734 259 728Q249 689 244 650T231 569Q226 542 219 515Q217 508 215 501T210 487Q208 479 207 470T203 453Q198 436 193 420T183 386Q174 356 164 326T144
266T129 205T123 143Q123 138 128 134T141 125T155 118T166 111V102Q166 87 160 79T146 64T130 52T116 36Q113 37 109 38T101 39Q91 39 82 34T61 29Q50 29 43 38T26 53Q25 79 18 103T10 154Q10 175 13 184T26 211Q26 214 26 217T25 223Q25 238 29 251T33 280Q45
302 52 327T67 377T82 427T104 473Q105 489 110 503T115 532Q115 541 112 549Q123 562 125 583T126 621Q131 632 133 643T140 667Q140 671 140 675T139 683Q139 706 144 728T150 773Q150 803 133 821Q132 825 132 829V838Q132 856 138 872T144 907Q154 912 163
916T184 920Q208 920 226 903T259 871Q263 856 263 838ZM199 -272Q199 -277 198 -281T195 -291Q181 -296 168 -298T140 -305Q132 -314 126 -324T104 -338Q83 -331 71 -312T58 -270Q58 -250 65 -240T81 -223T97 -209T104 -190Q109 -189 116 -189Q130 -189 138 -199T155
-219Q161 -225 168 -230T182 -242T194 -256T199 -272Z" />
<glyph unicode="&quot;" glyph-name="quotedbl" horiz-adv-x="490" d="M490 963Q490 944 485 926T465 894Q458 862 450 831T434 767Q431 751 429 736T422 705Q420 698 417 690T408 679V654Q402 647 399 639T390 626Q393 617 393 608Q393 593 386 579T379 552Q379
532 386 515T394 479Q394 457 379 442T347 414Q344 419 338 420T326 421Q309 453 296 482T282 548Q282 583 293 621T314 693Q319 711 325 727T336 762Q341 782 345 801T354 841Q361 864 367 886T379 932Q381 943 382 954T386 977Q390 994 406 1000T437 1007Q450
1007 462 1004L486 998Q490 982 490 963ZM220 880Q220 842 212 807T194 736T174 665T164 593Q168 585 171 581T178 574T185 565T193 550Q194 546 199 546T207 547Q202 540 200 531T196 511T190 493T178 481Q159 480 141 476T102 472Q84 472 72 479T54 497T44 524T41
554Q41 585 48 615T63 676Q68 693 74 709T85 743Q91 767 94 792T110 841Q110 849 110 857T109 873Q109 896 114 914T135 948Q148 953 162 953Q179 953 193 945T218 923Q219 912 219 902T220 880Z" />
<glyph unicode="#" glyph-name="numbersign" horiz-adv-x="1159" d="M1139 313Q1139 305 1138 301Q1109 291 1082 284T1023 272Q1012 270 1002 266T980 258L806 209Q800 207 789 204L767 198Q756 195 746 192T732 186Q716 178 708 153T694 96T685 36T675 -11Q681
-32 681 -54T685 -97Q674 -97 671 -103T666 -116T664 -132T656 -147Q637 -146 618 -143T578 -140Q567 -126 563 -109T546 -79L545 -76Q545 -71 550 -72T557 -73L560 -72Q567 -51 571 -27T575 20V31Q575 37 574 43Q584 65 590 88T596 135V139Q577 146 561 146Q545
146 530 142T500 134T469 124T438 118Q431 117 428 114T422 106T416 98T406 93L407 95Q407 99 402 99T395 100Q393 100 388 99T381 96Q364 91 352 82T339 53Q339 49 339 46T341 39Q343 37 346 37Q349 37 353 40T364 44Q366 44 367 44T370 43Q370 34 372 29T378
19L385 10Q389 6 391 0Q389 -15 383 -29T374 -57Q362 -63 353 -70T334 -86Q326 -89 316 -89Q300 -89 285 -84T252 -79Q238 -61 233 -41T227 2Q227 19 229 34T233 65Q210 71 186 71Q168 71 149 69T112 67Q97 67 83 69T54 79Q47 90 45 101T43 127V144Q43 153 44 161Q61
175 81 178T121 182Q140 182 159 181T198 179Q219 179 240 183T281 201Q282 215 286 229T305 251Q310 283 321 314T355 369Q355 383 353 396T352 423Q335 421 317 421T284 409Q269 414 257 414Q235 414 216 407T175 400Q161 400 152 404Q141 398 131 395T109 387Q94
391 79 391Q55 391 33 380H30Q21 379 16 384T0 387Q3 393 3 401Q3 416 -2 430T-10 459Q-6 464 0 466T12 471T23 476T30 487Q37 488 40 484T51 480Q57 480 70 486T87 498Q91 496 95 495T104 490H108Q113 490 114 494T120 499Q125 499 129 498T138 497Q150 497 161
499T184 502Q187 502 191 501T198 498Q204 502 213 502T226 509Q246 509 265 512T304 520T342 528T381 530Q386 532 389 537T398 545Q408 584 419 622T430 701Q430 718 427 735Q434 751 441 771Q463 793 494 793Q522 793 539 771Q538 766 538 756Q538 726 553 699Q551
667 545 637T535 578Q541 573 547 572T560 571Q582 571 603 577T646 581Q671 589 696 591T746 602Q751 610 753 622T765 638Q762 642 762 648Q762 667 772 683T782 719Q782 725 779 731Q788 739 792 750T808 767Q805 770 805 774T804 781V796Q811 802 817 810T830
825T844 838T863 843Q883 843 894 829T915 800V797Q915 782 912 771T904 749T893 729T883 707Q883 684 879 672T868 638Q883 631 900 631Q922 631 942 637T985 643H992Q996 643 1001 642Q1009 644 1017 645T1033 652Q1054 648 1069 635T1105 616Q1106 612 1106
604Q1106 579 1092 568T1059 552T1018 542T983 527Q970 530 954 530T926 538Q906 530 887 528T847 523Q822 506 812 483T801 430Q785 400 777 368T758 304Q765 301 776 301Q792 301 807 306T837 318Q841 318 844 318T853 317Q878 317 902 324T951 332Q956 332 962
331T973 330Q981 330 985 336T997 344Q1004 341 1015 341Q1026 341 1036 344T1057 348Q1066 348 1073 344Q1087 351 1101 351Q1117 351 1128 341T1139 313ZM700 473Q692 477 685 478T669 479Q649 479 629 475T588 471Q583 471 578 471T567 473Q564 468 563 463T556
455H536Q525 455 514 453T493 447T477 433Q471 424 464 407T449 371L434 333Q427 314 420 301V296Q420 283 416 274T407 256T398 239T391 218H393Q421 218 448 222T502 232L556 243Q583 249 610 251Q618 258 626 262T642 272Q643 287 647 300T657 327T666 354T671
383Q678 393 685 397Q684 402 684 412Q684 428 689 443T700 473Z" />
<glyph unicode="$" glyph-name="dollar" horiz-adv-x="913" d="M862 182Q850 153 831 132T789 94T739 64L687 38L626 7Q625 6 621 6Q616 6 613 8T604 10Q584 -1 563 -5T520 -13T477 -20T435 -33Q428 -42 424 -53T411 -72Q399 -119 381 -163T341 -250L299 -336Q278
-379 263 -424Q264 -428 264 -436Q264 -455 255 -472T234 -503Q226 -502 220 -499T206 -496Q202 -496 199 -499Q191 -486 181 -477T163 -456Q169 -441 172 -420T181 -378T194 -339T217 -312Q214 -305 214 -297Q214 -279 223 -259T246 -226Q245 -223 245 -218Q245
-199 251 -181T263 -144T276 -108T282 -72Q282 -70 279 -68T274 -61H268Q257 -61 247 -65T226 -69Q215 -69 210 -61Q169 -85 122 -85Q78 -85 44 -65Q44 -42 41 -18Q60 -9 82 -2T125 5Q137 5 152 0Q176 4 202 6T255 13T307 24T353 43Q357 42 361 42H371Q407 42 441
52T511 68Q526 76 538 81T568 86Q587 94 606 100T643 118H649Q666 118 677 128T700 146Q714 156 728 163T743 189Q738 206 726 217T695 229Q684 229 676 225Q666 230 653 235T625 244T596 251T571 254Q565 255 559 254T546 253Q494 253 444 261T340 269Q327 269
314 268T289 265Q273 273 255 277T217 284T180 291T148 304Q143 305 141 303T138 297T136 290T130 287Q126 287 115 290T100 295Q61 311 38 345T15 422Q15 445 23 469Q33 478 42 486T55 509Q88 514 101 542Q177 586 250 633T403 717Q400 726 400 735Q400 741 402
747T411 757Q410 763 410 769V781Q410 812 416 842T432 901T449 961T461 1022Q467 1034 470 1047T474 1074T475 1102T478 1129Q489 1138 502 1138H527Q534 1138 539 1138T550 1140Q561 1132 565 1121T579 1101Q574 1058 563 1017T539 934T515 852T500 767Q506 765
509 765Q520 765 529 771T550 778Q559 778 564 774Q582 792 610 799T662 807Q675 807 689 805T715 797T738 783T755 760Q754 752 751 747T745 737T738 727T735 713Q735 711 735 708T736 702Q722 694 707 685T679 664Q656 668 635 673T590 678Q583 678 575 673T561
664Q534 661 510 652T462 632T414 612T364 599Q347 581 328 570T285 556Q272 542 258 532T228 513T197 496T166 476Q158 465 148 456T127 437Q128 418 136 408T156 390T181 375T206 358H209Q226 358 243 354T278 349H288Q294 349 299 351Q305 346 314 344T332 341T351
339T368 333Q377 337 391 337Q408 337 423 334T456 330Q462 330 468 332T479 334Q483 334 484 331T489 326Q498 328 507 328H525Q580 328 640 315T751 283Q768 259 795 246T848 218Q849 207 854 200T862 182Z" />
<glyph unicode="%" glyph-name="percent" horiz-adv-x="1207" d="M916 695Q910 685 906 673T897 648T884 627T863 613V606Q863 596 859 591T856 573Q821 536 793 495T730 416Q728 417 724 417Q717 417 714 414T706 410Q703 410 701 412Q685 392 671 371T642 330T611
291T575 254Q564 228 548 205T513 160T479 115T454 65Q449 65 447 63T439 60Q428 33 415 10T389 -38T368 -88T359 -146V-158Q359 -164 360 -169Q370 -180 382 -190T394 -215Q394 -224 390 -233T386 -252Q370 -253 355 -257T325 -262Q308 -251 296 -248T264 -241Q259
-233 256 -224T246 -209Q251 -194 252 -178T253 -146T252 -114T257 -83Q265 -74 270 -63T279 -38T287 -13T296 10Q299 10 300 12T303 17T306 21T314 22Q332 71 362 113T418 201Q426 205 432 211T446 222Q451 235 459 246L476 268Q485 279 492 290T504 315Q515 320
521 329T533 349T546 368T565 380Q567 396 574 406T591 425T607 445T615 473Q618 470 620 470Q622 470 623 471T630 473Q637 487 647 500T667 525T686 551T701 581Q709 582 714 585T726 592V599Q726 608 730 616T734 633Q734 636 733 638Q729 643 724 644T712 645Q705
643 701 639T690 631H647Q631 620 612 615T574 605T536 596T504 581Q499 587 487 587Q469 587 451 581T415 573V566Q415 550 416 534T417 502Q417 494 417 487T415 473Q413 462 410 460T403 452Q401 445 401 439T398 427Q393 412 384 402T364 382T340 365T317 347Q312
347 313 342T310 333Q298 323 279 314T238 297T197 280T160 261Q153 269 144 271T125 273Q109 273 92 268Q91 274 87 277T78 282T66 285T55 287Q32 310 24 344T15 411Q15 447 24 480Q32 482 37 489T48 502V527Q68 540 75 561T92 602Q102 622 116 639T135 678Q145
677 146 684T153 699Q159 704 163 709T174 717Q176 730 183 737T196 757Q208 761 220 769T243 785T266 800T286 810Q291 812 298 812T310 813Q328 813 344 810T379 807Q383 798 392 794T408 781Q408 779 408 776T409 770Q409 766 409 762T408 753Q397 743 388 740T365
738Q366 723 379 715T409 703T445 698T475 697Q495 697 517 699T558 710Q563 708 569 708T580 702Q584 705 588 708T598 712Q602 712 608 710Q618 718 631 721T659 725T688 726T716 728Q729 730 743 735L771 746Q785 752 798 756T824 761Q833 761 841 760T859 758Q863
758 866 758T873 760Q882 752 889 746T903 733T912 717T916 695ZM1136 136Q1136 120 1134 104T1132 72Q1124 61 1121 50T1110 29Q1104 20 1096 14T1080 0T1063 -15T1050 -36Q1019 -45 1007 -72Q976 -86 947 -103T892 -140Q875 -138 871 -141T859 -158Q856 -158
854 -158T848 -157Q833 -157 817 -162T787 -176Q770 -176 754 -177T720 -178Q693 -178 669 -172T626 -143Q618 -114 616 -85T611 -26Q620 -3 632 17T651 60Q656 62 660 65T669 72Q673 91 683 104T706 129T730 153T749 182Q758 183 763 187T780 189Q788 192 789
199T795 211H799Q815 211 826 219T851 228Q857 228 863 225Q880 233 895 243T928 261Q936 261 944 261T962 262Q986 262 1006 257T1046 232Q1074 230 1090 217T1124 186Q1126 178 1127 168T1136 151V136ZM1039 141Q1039 143 1039 145T1038 151Q1025 160 1011 166T981
175Q975 167 967 163T949 154T931 145T916 132V125Q916 112 909 96Q897 96 891 92T880 81T873 66T866 50Q849 55 836 66T806 82Q795 74 787 65T762 53Q759 37 753 22T741 -10T731 -42T726 -75V-83Q734 -85 737 -90T749 -97Q763 -95 776 -90T803 -78T830 -68T859
-61Q861 -56 864 -51T873 -43Q882 -43 892 -39T912 -28T932 -15T952 -7Q960 7 969 14T995 22Q1013 45 1026 78T1039 141ZM325 524V527Q316 539 316 552Q316 557 316 561T317 570Q317 574 314 578T308 588T302 600T300 616Q291 619 285 625T273 639T261 651T246
657Q239 657 236 656Q226 640 216 630T203 599Q183 588 178 569T167 530Q161 528 160 525T150 523Q145 496 136 470T127 415Q127 375 164 361Q169 365 173 369T184 373Q189 373 190 370T197 366H200Q209 371 216 376L230 387Q237 393 246 396T267 401Q274 413 283
424T301 446T315 469T321 497Q321 502 319 506T317 516Q317 520 321 520T325 524Z" />
<glyph unicode="&amp;" glyph-name="ampersand" horiz-adv-x="1044" d="M1024 389Q1021 381 1016 376T1006 364T996 352T991 336Q961 316 936 291T884 243H882Q880 243 878 242T872 239L869 243Q852 229 837 212T809 178H803Q795 178 790 174T776 171Q766 164
761 153T744 135Q762 124 778 111T805 78Q815 76 824 71T841 59T857 48T877 41Q891 17 920 9Q946 -12 960 -47T974 -116Q974 -140 966 -163T941 -206Q947 -209 947 -214Q947 -219 946 -222T945 -231Q931 -244 908 -244Q900 -244 891 -243T873 -239V-229Q873 -220
872 -211T871 -194Q871 -181 874 -176T880 -167T887 -157T890 -134Q890 -126 889 -113T883 -88T871 -68T852 -59Q849 -46 841 -38T823 -24T802 -13T783 2Q778 2 775 0T767 -2H762Q759 -3 757 0T751 6L746 13Q744 17 741 17Q739 17 737 16T732 15Q728 15 725 21T719
31Q710 39 695 46T668 53Q654 53 646 44T633 24H630Q624 25 620 21T608 19Q593 4 578 -11T554 -48Q545 -48 540 -52T530 -63T521 -74T510 -79Q506 -79 504 -77Q492 -96 476 -111T441 -139L405 -166Q387 -180 371 -196Q372 -201 375 -201T379 -207L378 -210Q376
-212 374 -212Q372 -212 370 -211T364 -209Q362 -209 361 -209L360 -210Q348 -222 332 -230T299 -245T268 -263T246 -289Q241 -286 237 -286Q227 -286 224 -294T214 -303Q212 -303 210 -303T205 -302Q204 -303 203 -303Q198 -306 194 -311T186 -322T178 -330T167
-332Q162 -336 161 -343T156 -356Q150 -355 147 -352T138 -349Q124 -360 106 -364T69 -369T31 -370T-5 -371Q-35 -361 -59 -345T-95 -299Q-97 -295 -99 -287T-102 -274Q-102 -243 -95 -214T-77 -156T-53 -100T-27 -45Q-18 -45 -15 -39T-2 -34V-9H12Q12 -7 12 -5T11
-1Q11 11 16 18T28 30T38 42T41 59Q53 65 62 73T79 91T97 109T120 121Q122 125 122 127T121 135Q121 140 124 145Q182 193 237 242T353 339V342Q352 347 354 350T357 359Q357 366 352 374T340 391T324 405T310 415Q308 437 298 450T270 475V497Q251 519 239 546T219
603T204 662T188 719Q189 725 191 730T193 742Q193 752 184 752Q191 761 192 775T196 803T203 830T224 845Q224 854 229 859T234 873Q250 884 267 892T296 916Q304 917 310 919T323 925T337 930T353 931Q364 940 378 945T407 953T434 961T457 974Q466 973 475 973T493
972Q508 972 523 973T554 974Q562 964 573 960T597 952T622 946T644 935Q653 928 655 917T669 902V896Q669 879 673 865T683 835V822Q683 784 677 749T663 679T645 611T630 540Q611 522 602 497T586 446Q572 440 568 427T554 403Q552 401 549 399T542 395Q530 387
520 377T504 353Q507 339 513 328T527 306T543 286T557 264H571Q574 261 574 257T575 250Q589 247 597 238T614 220T633 203T662 196Q669 210 680 220T704 239T727 259T744 286Q764 293 780 306T805 339Q819 345 830 354T848 379Q858 379 861 384T873 393Q875 406
880 415T892 431T906 447T920 465Q923 465 926 465T931 466Q939 466 945 465T959 463Q964 463 970 465Q980 454 991 445T1017 429Q1014 423 1014 416Q1014 408 1017 402T1024 389ZM568 124Q567 132 562 136T556 148Q556 151 556 153T557 157Q539 165 525 178T498
206T469 232T432 250V253Q432 262 426 264T411 267Q396 256 382 246T351 225Q344 220 336 216T321 207Q317 204 315 197T310 185Q292 183 282 173T256 157V142Q242 134 233 122T214 97T195 72T170 52Q170 45 168 42T167 31Q150 20 136 10T120 -24Q97 -43 84 -70T55
-124Q54 -137 49 -148T37 -170T25 -192T19 -215Q19 -223 22 -231T31 -246H34Q41 -246 46 -243T55 -235T63 -226T73 -222Q78 -222 81 -224L80 -218Q80 -214 81 -210T88 -206Q95 -206 97 -208T105 -213Q137 -198 167 -180T231 -148Q235 -137 241 -132T254 -125T269
-120T282 -113Q287 -108 287 -100T289 -88Q294 -86 298 -84T308 -82Q311 -82 317 -84Q339 -66 364 -51T403 -9Q427 6 449 20T491 49T531 83T568 124ZM572 800Q572 815 569 830T554 856Q558 856 558 860Q558 863 556 865T554 873Q540 879 525 879Q504 879 483 873T439
870Q419 856 395 848T349 830T313 802T298 751V740Q298 735 299 730Q302 725 303 718T310 705Q308 699 305 696T303 687Q310 681 310 671Q310 664 306 654Q314 639 321 628T328 597Q338 580 349 565T368 529Q379 521 386 506T400 476T416 449T439 436Q445 440 448
445T454 456T463 463T478 465V482Q497 495 508 517T527 563T543 611T564 654Q559 672 559 687Q559 716 565 743T572 800Z" />
<glyph unicode="&apos;" glyph-name="quotesingle" horiz-adv-x="263" d="M263 901Q260 875 253 846T227 798Q226 782 220 767T207 738T195 709T191 679Q177 672 176 658T175 630Q175 612 177 595T184 561Q174 538 156 525T117 500Q99 503 87 511T66 532T51 560T41
590Q47 633 60 674T89 755T117 836T138 920Q157 935 181 936T227 941Q237 931 247 923T263 901Z" />
<glyph unicode="(" glyph-name="parenleft" horiz-adv-x="428" d="M408 -302Q393 -308 378 -308Q361 -308 345 -304T311 -298Q303 -291 297 -287T279 -284Q261 -263 232 -252Q218 -237 204 -224T175 -197L146 -166Q141 -160 137 -156T128 -146Q114 -127 103 -105T71
-69Q67 -49 60 -30T47 8T35 46T30 86V98Q30 104 32 111Q29 117 28 126T20 139Q29 157 29 178T30 218V233Q30 243 32 247Q32 251 36 257Q39 265 40 274T44 293Q46 308 48 327T53 365T61 403T75 433Q78 465 87 493T109 549T132 605T150 664L164 671V675Q164 682 167
687T173 696T180 706T182 721Q193 731 202 740T214 767L236 781Q247 788 254 800Q264 807 275 807Q284 807 293 802T312 791T330 779T350 771Q348 766 347 762T346 753Q346 744 348 735T351 718Q351 703 343 692Q336 688 330 685T314 681Q313 678 310 674T305 665T300
656T300 649Q287 642 279 630T257 613Q254 598 247 586L234 562Q228 550 223 537T218 505Q202 478 193 448T174 386Q171 376 167 365T161 344Q156 329 156 313T153 281Q148 243 144 206T140 131Q140 104 143 77T154 25Q158 11 165 0T178 -26Q188 -49 195 -73T218
-119Q231 -136 245 -151T271 -183Q290 -188 301 -201T326 -226Q332 -228 340 -228T354 -233L366 -247Q379 -259 391 -270T408 -302Z" />
<glyph unicode=")" glyph-name="parenright" horiz-adv-x="477" d="M354 193Q354 145 348 109T326 29Q325 27 325 24Q325 19 327 16T329 7Q319 -8 313 -24T300 -56T287 -88T271 -119Q266 -122 266 -125T257 -126Q251 -149 240 -169T216 -208T190 -246T168 -288Q160
-293 150 -291Q142 -317 123 -336T74 -356Q58 -356 42 -348Q37 -335 30 -324T20 -298Q23 -290 32 -288T46 -281Q52 -254 75 -241Q74 -239 74 -234Q74 -229 75 -225T78 -216Q91 -204 99 -190T116 -160T132 -131T154 -104Q154 -90 159 -82T175 -65V-47Q185 -37 192
-21T206 12T218 47T228 79Q229 80 229 84Q229 88 227 91T225 100Q234 115 235 132T247 165Q243 170 243 176T240 189Q242 201 243 213T244 237Q244 258 242 279T236 323L237 326Q237 331 232 331T225 337Q227 343 228 349T232 361Q225 375 221 392T213 427T202
460T185 487Q189 494 189 502Q189 504 185 514T180 527Q176 538 173 548T168 570Q159 582 152 595T139 623T124 649T103 671V674Q103 679 100 681T99 692L75 707Q70 719 64 731T57 757Q57 763 60 771Q63 773 67 773T75 774T84 776T89 781Q110 773 127 761T159 735T188
705T218 674Q221 654 230 639T254 609Q270 562 289 517T322 423Q354 309 354 193Z" />
<glyph unicode="*" glyph-name="asterisk" horiz-adv-x="816" d="M801 334Q796 330 788 330T775 331H772Q764 326 760 318T748 305Q719 311 690 316T633 332Q625 335 619 338T607 345H603Q597 345 595 341T588 338H586Q583 346 575 349T557 354T540 359T531 374Q525
372 520 372Q510 372 502 376T487 385T472 395T455 399Q449 399 445 398Q437 415 427 420T399 427Q371 372 336 322T263 223H254Q246 223 239 221T223 216Q206 218 196 229T170 245Q168 255 168 261Q168 278 174 293T180 325Q180 336 173 348Q175 350 179 350Q184
350 189 349T199 345Q209 355 216 368T231 394T248 417T273 434Q275 448 281 458T294 476T307 494T316 517Q314 524 308 528T296 535T282 541T270 549Q247 552 227 559T186 576T146 594T105 610Q94 620 81 627T58 646Q56 646 55 646T52 645Q47 645 43 646T34 649Q22
663 20 678T15 711Q27 715 37 721T58 732Q92 722 124 707T187 676T250 645T316 621Q321 629 323 638T325 655Q325 671 321 682Q323 705 324 726T325 770Q325 783 325 796T321 822Q328 823 330 830T335 844Q333 852 331 861T328 880Q333 887 336 896T343 912T353
925T372 930H374Q385 922 399 916T421 897Q420 858 419 820T418 741Q418 699 421 656Q443 665 461 678T496 707T532 736T571 761Q579 770 586 779T603 797V807Q603 820 608 826T622 844Q633 842 649 841T681 835T708 821T719 795Q719 778 712 766T695 742T675 720T657
696Q646 696 639 691T625 679T612 667T596 664Q588 661 586 653T579 639Q568 636 563 629T550 617Q549 612 545 610T537 606T529 601T528 592Q517 592 507 586T489 570T473 550L460 531Q465 513 482 505T514 488Q530 479 544 468T579 456Q585 449 593 445T610 438T628
430T643 420Q663 418 679 412T712 395Q728 395 743 393T771 383T791 365T801 334Z" />
<glyph unicode="+" glyph-name="plus" horiz-adv-x="904" d="M848 366Q840 350 826 341T801 318Q785 319 771 322T740 325Q729 325 717 322T697 307Q657 315 617 315T536 318Q513 304 487 302T435 293Q431 270 427 247T423 200Q423 184 427 166T445 139Q444 109
445 85T435 32Q430 34 426 36T416 38Q407 38 400 32T387 17T375 0T359 -11Q337 -5 316 10Q313 24 311 37T308 65Q308 81 313 99Q307 114 305 129T302 160Q302 181 305 202T308 247Q308 258 307 268T302 290Q284 288 267 288T232 287T197 283T163 271Q152 278 137
278Q128 278 119 276T100 274Q89 274 77 279Q64 305 46 325T15 372Q60 378 104 380T193 384Q201 384 213 384T237 385T262 385T281 387Q289 389 293 395T306 404Q303 429 301 459T297 519T291 579T278 631Q280 642 284 652T292 674Q300 675 307 679T324 683Q329
683 340 679T364 668T388 656T402 645V640Q402 623 405 609T414 579L418 569Q420 564 421 559Q422 554 422 548V538Q422 518 420 499T417 460Q417 450 418 433T424 409Q426 403 431 402T438 394Q468 402 502 401T567 402L583 404Q591 405 599 407Q604 408 610 410T622
412Q649 412 676 407T732 401Q760 401 783 409Q800 401 819 392T848 366Z" />
<glyph unicode="," glyph-name="comma" horiz-adv-x="211" d="M98 -7Q98 -20 92 -23T84 -36Q81 -48 79 -61T72 -86Q52 -147 16 -192T-63 -283Q-77 -286 -89 -286Q-102 -286 -111 -281T-131 -268Q-132 -261 -132 -255T-133 -241V-222Q-133 -212 -131 -204Q-129
-193 -122 -187T-114 -168Q-112 -169 -110 -169Q-105 -169 -102 -166T-95 -165Q-69 -126 -50 -84T-19 4Q-24 21 -28 37T-41 69Q-35 78 -33 89T-26 111T-12 129T17 136Q36 136 55 127T88 104Q87 102 87 97Q87 86 92 79T98 61Q98 51 96 41T93 20Q93 12 95 4T98 -7Z"
/>
<glyph unicode="-" glyph-name="hyphen" horiz-adv-x="795" d="M713 297Q703 296 696 292T680 286Q681 285 681 283Q681 277 678 275T677 264Q662 256 646 252T614 245T581 238T551 225V236Q539 229 528 229Q518 229 509 232T489 236Q484 236 476 232Q466 233
461 237T447 247Q442 237 433 235T415 232Q404 232 395 233T376 236Q360 231 346 231T316 230Q302 230 290 229T264 221Q260 231 247 231Q241 231 235 231T222 230Q212 230 207 236Q203 234 203 229T203 221Q188 227 171 227Q157 227 144 224T118 221Q111 221 104
223T92 225Q86 225 83 223T78 218T72 213T62 210Q51 210 47 216T35 225Q35 235 32 243T25 259T18 276T15 294Q15 297 15 300T16 307Q30 327 56 335T105 344Q116 344 121 340T135 329Q205 337 275 340T416 347Q439 349 462 350T508 354Q511 354 512 356T513 362T515
367T521 369Q532 369 536 363T548 354Q555 358 564 360T583 363T600 367T615 376Q623 377 624 373T630 366Q635 367 641 368T652 370H659Q663 370 666 369Q675 349 689 333T713 297Z" />
<glyph unicode="." glyph-name="period" horiz-adv-x="249" d="M146 130Q146 115 141 102T128 75L114 49Q107 36 103 22L99 23Q85 23 72 20T46 12T20 4T-8 0Q-10 14 -16 25T-40 36Q-43 44 -43 53T-44 70T-45 87T-51 104Q-33 118 -21 137T6 173Q18 170 31 170Q46
170 61 173T91 177Q107 177 121 169Q124 164 125 158T128 147T134 137T146 133V130Z" />
<glyph unicode="/" glyph-name="slash" horiz-adv-x="455" d="M547 797Q545 773 539 751T524 706T507 663T494 617H490Q487 617 485 616T479 613Q479 612 479 611T478 609Q478 605 479 602T481 597Q481 595 481 595T479 592Q446 537 420 479T365 364Q353 341 341
319T314 275Q309 267 304 260T293 245Q291 243 291 238T290 231Q290 225 293 219Q283 218 279 212T267 202V199Q268 191 264 184T260 169Q242 151 231 127T207 81Q202 72 196 65T185 50Q180 42 176 32T168 12Q163 0 149 -30T119 -94T91 -156T78 -194Q77 -202 77
-209T78 -225Q65 -237 55 -250T31 -272Q17 -267 4 -260T-23 -247Q-29 -237 -31 -227T-41 -208Q-41 -197 -37 -188T-32 -168Q-32 -162 -34 -158Q-29 -156 -26 -154T-15 -151Q-16 -148 -16 -143Q-16 -129 -1 -122Q0 -96 10 -74T32 -29L56 15Q68 37 74 61Q85 78 94
93T106 130Q135 168 159 207T200 295Q213 306 222 321T239 353T256 384T279 410Q281 426 286 440T298 469L311 497Q318 511 322 527Q338 550 350 576T371 630T389 685T408 739Q407 744 407 748T406 758Q406 799 432 819T497 840Q511 829 523 819T547 797Z" />
<glyph unicode="0" glyph-name="zero" horiz-adv-x="883" d="M831 433Q831 370 820 311T792 191Q781 180 775 169T770 141Q758 138 754 127T745 105Q728 94 716 80T689 51Q685 47 682 42T674 34Q665 27 654 22T634 10Q614 -3 595 -17T558 -49Q515 -66 476 -87T397
-135H372Q359 -143 348 -148T322 -153Q302 -166 278 -174T229 -190T179 -203T132 -217Q127 -216 123 -215T113 -213Q99 -213 88 -219T63 -228Q59 -230 54 -230T45 -229Q19 -229 -2 -221T-47 -207Q-53 -194 -64 -182L-86 -158Q-97 -146 -105 -134T-116 -106V-96Q-116
-85 -118 -74T-123 -52Q-116 -34 -109 -14T-94 25T-76 63T-51 94Q-46 116 -36 134T-13 170T12 206T32 245Q37 244 38 247T41 253T45 259T53 259Q53 269 57 275T65 288T73 300T78 316Q85 319 89 325T98 337T106 350T118 359Q120 372 125 381T137 399T150 415T161
435Q167 440 175 438Q189 466 208 491T247 540T287 588T322 640Q336 648 348 659T369 686Q349 724 334 759T319 840Q319 847 320 854T322 869Q339 892 355 907T402 923Q432 923 460 912T519 901Q534 890 549 882T582 865L595 860Q603 858 609 855Q615 851 621 846T634
836Q674 803 708 765T777 686V684Q777 668 784 660T799 640Q799 622 804 608T817 579Q817 565 817 551T822 522Q826 512 827 507Q831 493 831 471V433ZM750 434Q750 463 747 487T738 540Q734 564 729 588T713 634T686 674T645 705H642Q639 705 636 701T621 696Q615
696 610 698T599 700H595Q583 694 574 691T551 690Q536 676 520 665T483 647Q474 629 460 616T426 597Q422 585 415 577T398 562T379 549T361 536Q353 528 349 520T336 504Q325 494 317 485T300 464Q293 453 287 442T279 417Q250 400 233 373L199 319Q192 309 185
301L171 285Q168 281 168 276T168 266Q154 256 144 243T126 214T108 185T85 159Q77 139 67 119T39 84Q22 42 7 1T-15 -85Q-8 -92 -1 -97T13 -110Q14 -111 17 -111Q22 -111 24 -108T31 -105Q33 -105 33 -105L35 -106Q36 -113 41 -116T53 -120T67 -123T78 -128Q100
-121 127 -118T180 -110T232 -97T275 -74H286Q296 -74 300 -78Q319 -59 338 -49T383 -38Q421 -3 469 18T562 66Q567 68 567 73T572 80Q577 81 580 81T588 80Q623 114 655 149T713 227Q713 234 714 239T716 250Q716 252 715 254T713 259Q733 299 741 344T750 434ZM519
794Q506 803 488 810T454 818Q437 818 430 809T422 783Q422 774 427 769T429 748Q432 746 437 746Q449 746 460 751T480 763T499 779T519 794Z" />
<glyph unicode="1" glyph-name="one" horiz-adv-x="556" d="M413 871Q413 851 408 833T400 794Q399 792 399 787Q399 781 400 776T403 765Q393 745 388 723T379 677L371 631Q367 608 360 586V583Q360 578 362 574T365 565V561Q352 519 345 475T322 392Q324 382
324 377Q324 366 322 358T315 342L308 329Q305 323 303 316Q302 312 302 308V300Q301 277 300 260T286 223Q285 197 281 173T268 124Q263 104 256 84T246 44Q244 34 245 20T247 -6Q247 -29 246 -51T239 -95Q242 -110 250 -122T260 -150Q263 -153 266 -153Q268 -153
270 -152T276 -151Q280 -151 282 -153Q285 -161 285 -167Q285 -179 274 -188Q275 -194 275 -198V-208Q275 -215 274 -226T262 -237Q257 -237 257 -232T253 -224Q247 -226 243 -226Q235 -226 230 -223L220 -217Q215 -214 210 -212T196 -210Q188 -195 179 -182T157
-157Q150 -133 149 -108T138 -59Q139 -58 141 -53L145 -43Q147 -38 148 -33T150 -26Q150 -20 148 -16T145 -6Q152 17 154 44T167 91Q168 101 169 114T172 140T179 164T193 184Q191 189 191 195T190 207Q190 231 195 253T208 299Q210 306 212 313T217 328Q218 330
218 332T217 336Q217 348 214 359Q220 363 222 369T225 383T229 398T236 410V415Q236 450 246 483T264 550V554Q264 558 262 560T260 566V568Q262 577 265 585T270 603Q275 625 276 647T286 690Q284 698 284 706V722Q284 745 286 766T294 810Q296 818 299 831T303
851Q303 863 300 875T297 900Q297 906 298 912T303 923Q296 936 296 953Q296 967 300 981T314 1006H344Q358 1006 372 1002T393 984Q395 981 397 974T402 958T407 942T409 930Q409 918 403 908Q410 900 411 891T413 871Z" />
<glyph unicode="2" glyph-name="two" d="M1070 5Q1064 -3 1055 -6T1037 -11T1019 -15T1002 -24Q1000 -25 1000 -26T997 -27Q994 -27 992 -23T984 -16Q958 -30 928 -40T869 -62T811 -87T762 -121Q746 -123 730 -128T705 -150H702Q698 -150 696 -148T690 -145Q683
-145 681 -149T679 -157T677 -166T671 -170Q669 -170 667 -167T657 -164Q620 -184 580 -204T511 -257Q509 -255 506 -255Q504 -255 503 -255L502 -256Q500 -256 499 -255T497 -254Q474 -274 449 -290T397 -323T346 -355T299 -393Q285 -394 271 -399T244 -409T216
-418T188 -423Q162 -423 145 -400Q142 -402 140 -403T134 -404Q126 -404 120 -398T102 -393Q89 -379 84 -358T70 -318Q72 -279 83 -243T98 -167Q107 -158 112 -147T121 -123T131 -98T145 -78Q151 -48 165 -21T184 37Q192 42 197 49T210 62V68Q210 76 206 80Q213
98 221 114T238 146T252 179T260 216Q268 223 272 233T279 254T287 274T303 288Q302 290 302 293Q302 303 307 311T313 328Q313 333 310 338Q330 380 349 420T378 507Q388 512 390 522T399 540V545Q399 562 406 583T425 618Q430 653 436 691T457 762Q455 769 452
776T446 791Q421 777 389 766Q383 764 376 763T364 758Q358 756 357 749T356 736Q344 736 337 731T324 720T310 708T292 700Q280 688 272 682T249 669Q244 667 239 661L229 649Q224 643 220 639T210 636Q207 627 202 621T190 610T180 597T177 579Q173 575 170 575Q167
575 163 579Q161 567 156 560T143 546T128 534T113 521Q104 522 98 525T84 531T70 535T51 536Q52 542 49 545T41 550Q41 558 41 570T42 594T45 618T51 636Q57 646 70 654T99 670T129 688T153 712Q154 711 157 711Q165 711 170 715Q175 724 183 728T199 740Q202
743 202 747T206 755Q209 758 217 761T231 769Q237 774 240 780T249 791Q257 797 266 800T285 808Q294 814 301 822T313 841Q333 850 352 859T389 880Q399 886 408 893T426 908T446 920T469 925Q484 925 492 920T506 908T520 894T540 884Q550 868 553 850T558 812T559
773T561 736Q555 719 547 703T539 669Q539 662 540 657H528Q524 624 513 593T488 530L461 469Q448 439 439 407Q437 398 432 397T425 388Q420 377 417 364T409 339Q399 313 389 289T368 242V232Q368 227 371 227Q339 183 328 127Q320 121 317 113T306 98Q299 69
288 42T264 -13T241 -67T224 -124Q213 -134 207 -148T196 -178T188 -210T180 -239L170 -275V-295Q170 -300 169 -306T163 -314Q165 -321 168 -325T170 -336Q174 -344 184 -345T203 -350Q211 -348 212 -341T217 -329Q226 -317 244 -303T284 -274T326 -246T360 -221H378Q414
-198 450 -177T525 -138Q535 -125 549 -118T579 -105T609 -91T633 -71Q644 -69 657 -66T676 -52H680Q683 -52 686 -53T690 -59Q697 -57 698 -50T705 -38Q734 -27 764 -15T823 12Q837 12 854 16T881 34Q883 33 886 33Q897 33 907 36T929 44T951 53T974 58H976Q978
58 978 63T977 70Q977 74 981 73Q984 74 991 74Q1002 74 1011 70T1030 59T1048 47T1067 37Q1065 29 1065 24Q1065 19 1066 15T1070 5Z" />
<glyph unicode="3" glyph-name="three" horiz-adv-x="923" d="M871 388Q871 365 865 346T852 304L847 288Q840 275 828 261T805 236Q782 210 759 184T718 127H716Q713 127 711 125T706 121T702 117T696 116Q689 99 674 91T646 70Q645 62 642 57T639 44Q603 23
572 -4T510 -59Q491 -64 480 -75T456 -99Q430 -112 405 -127T359 -164Q336 -170 316 -183T274 -209Q268 -213 262 -215T248 -221Q241 -224 241 -231H237Q229 -231 226 -236T212 -240Q201 -251 187 -257L159 -270Q145 -277 132 -284T108 -304Q91 -306 78 -314T47
-322H43Q37 -315 30 -310T16 -299T5 -286T0 -266V-261Q47 -242 79 -207Q81 -207 82 -207T85 -206Q90 -206 94 -207T102 -209Q104 -209 108 -207Q130 -200 150 -188T190 -164T230 -140T272 -121Q304 -95 338 -71T410 -28Q413 -20 417 -16T420 -2Q422 -3 425 -3Q433
-3 438 1Q454 12 468 24T497 49Q527 75 558 102T621 152Q623 162 629 167T635 184Q648 189 655 200T678 216Q686 232 695 246T721 266Q727 282 734 295T748 320T760 347T765 381Q765 403 751 411T718 423T679 428T646 438Q640 437 641 430T639 421H629Q616 421
603 417L578 410Q566 407 553 404T527 402Q508 392 494 384T465 369T434 356T395 345Q384 343 381 338T370 328Q365 331 361 335T352 342Q347 341 344 337T337 328T331 320T324 316Q315 316 308 321T294 334T282 348T269 359Q273 369 273 379T272 399Q284 412 294
425T319 445Q346 477 369 505T409 564T438 629T453 708Q453 715 456 719T460 729Q460 739 457 746T449 758T441 770T438 786Q422 800 402 800Q394 800 384 796T364 787T343 776T327 765Q321 761 316 757T305 748Q282 728 261 709T219 669V650Q210 648 205 642T196
628T191 610T186 593L187 590V588Q187 587 185 587Q184 587 182 588T178 590H176Q168 567 150 555T112 532Q93 537 78 547T47 568Q40 582 40 600Q40 618 45 634T54 669Q69 681 79 697T99 729T122 758T155 779Q165 795 180 807T211 830T244 852T272 877H291Q294
887 303 891T321 899T339 908T348 927Q352 928 352 923Q361 926 372 926Q385 926 397 923T422 920Q432 920 441 923Q442 917 446 915T457 911T470 909T481 905Q480 895 487 894T499 887Q503 882 503 875T510 862L521 850Q527 845 532 838Q550 813 560 776T570 708Q570
706 568 697T565 685Q554 634 533 590T488 500Q494 499 499 499T510 498Q532 498 550 504T589 518Q599 515 611 515Q628 515 643 518T676 521Q685 521 693 517T713 513Q723 513 728 514Q744 506 762 498T798 481T831 461T859 434Q861 432 864 428T868 421Q870 417
870 405T871 388Z" />
<glyph unicode="4" glyph-name="four" horiz-adv-x="663" d="M611 1020Q608 954 598 889T576 758T551 628T532 497Q540 499 543 499Q554 499 570 491T597 478V469Q597 464 601 464V461Q601 447 595 439T587 417Q578 411 568 406T551 392Q547 387 546 380T540 367Q535
359 526 355T511 342Q507 335 508 326T504 309Q500 304 495 301T486 292Q481 281 480 266T475 238Q473 227 469 218T465 199V193Q465 188 461 188T454 187Q448 115 440 45T432 -98V-134Q432 -140 437 -142T443 -151Q443 -155 443 -158T442 -166Q442 -183 449 -200T460
-234L465 -261Q467 -270 473 -278T487 -296T500 -316T508 -343Q500 -355 483 -359T454 -372Q455 -359 450 -353T437 -342T421 -333T408 -322Q387 -292 374 -256T352 -180T341 -102T338 -28V0Q338 13 339 27Q340 43 342 58T343 91Q357 128 362 170T372 252Q347 247
317 233T267 202Q255 209 243 209Q224 209 208 202T172 194Q165 194 161 195T154 198T148 202T138 206Q117 213 101 221T73 240T53 268T38 307Q36 317 34 329T31 352Q31 360 35 376T39 407Q39 414 38 422T31 435Q40 453 44 472T53 512T62 552T78 590Q77 627 83
654T106 715V718Q106 736 110 749T120 773T133 796T145 822Q156 830 168 833T195 836Q216 836 236 829Q241 821 245 813T250 794Q250 785 247 779T238 769T227 759T217 748Q207 733 201 714T191 675T183 634T174 597Q172 591 169 586T164 575Q158 558 158 538T157
500Q154 475 150 451T145 400Q145 374 151 351T174 306Q180 308 183 308Q189 308 195 305T207 299Q225 303 241 306T271 324Q273 324 276 324T282 323Q294 323 302 328T320 340T339 351T365 356Q373 366 382 372T400 388Q404 414 409 446T429 500Q428 505 428 510V520Q428
560 437 598T446 676Q454 683 458 693T466 714T472 735T482 755Q480 760 480 766T475 776Q477 783 483 792T489 808Q489 813 489 818T488 828Q488 839 491 848T501 865Q498 875 498 886Q498 910 507 932T516 978V984Q516 988 515 991Q522 1005 526 1015T529 1041Q536
1044 543 1044Q559 1044 576 1034T611 1020Z" />
<glyph unicode="5" glyph-name="five" horiz-adv-x="892" d="M810 1001Q808 992 803 984T796 966Q783 966 771 962T756 944H753Q748 944 747 948T740 952H739L738 951Q718 945 698 938T658 925Q616 911 575 898T494 865H472Q412 826 348 797T221 733Q214 722 205
713T185 693Q191 688 191 677Q191 663 188 651T185 625Q185 617 188 613T197 604Q195 598 192 593L186 584Q183 580 181 573T178 554Q178 512 171 472T164 390Q164 365 168 345Q175 348 181 352T195 360Q201 363 206 364T218 367Q223 369 222 374T225 381Q228 383
233 383T243 386Q251 388 257 390T272 395Q304 407 334 422T400 438Q405 445 413 448T430 454T447 459T462 468Q498 476 535 480T611 484Q631 484 651 481Q668 472 684 465T717 450Q734 440 750 428T781 399Q798 382 803 359T809 313Q809 307 809 296T807 273T803
250T799 234Q797 230 784 206T755 154T726 103T710 77Q708 75 703 74T695 73Q693 62 688 55T676 42T665 28T659 8Q651 6 646 1T634 -6Q620 -30 602 -50T564 -90L525 -129Q506 -149 490 -171H487Q479 -170 476 -175T465 -181Q462 -186 462 -192T462 -204H443Q432
-218 418 -227T388 -246T358 -265T333 -290Q332 -289 329 -289Q324 -289 322 -292T311 -293Q296 -302 287 -317T261 -340Q242 -331 222 -321T189 -293Q196 -278 197 -264Q246 -236 294 -206T379 -131Q380 -132 383 -132Q386 -132 388 -131T392 -129Q394 -129 395
-130T397 -131Q398 -122 403 -117T415 -106T426 -95T431 -81Q431 -77 429 -71Q452 -59 469 -42T503 -5T535 33T572 66V84Q583 87 589 94T601 111T611 128T627 141Q627 143 628 145T629 151Q629 153 628 155T627 159H637Q652 193 671 224T702 292Q700 317 691 334T670
371Q654 371 647 378T627 392Q621 390 616 390Q611 390 606 391T595 392Q584 392 577 385H574Q569 384 567 388T559 393Q558 393 557 393T555 392Q536 394 519 389T482 384Q476 384 472 385Q463 374 448 370T419 364Q395 347 371 336T318 316Q301 303 282 293T244
271T207 247T178 216V213Q177 205 183 201T189 187Q181 178 179 170T178 148L162 140Q154 136 146 130Q135 134 125 138T101 143Q95 143 85 141Q73 160 55 174T20 202Q22 216 26 231T46 252Q47 257 47 261V270Q47 282 46 293T44 316Q44 326 45 330T49 337T53 340T56
345Q59 360 58 377T56 409Q56 429 59 448T75 485Q74 490 74 494V503Q74 545 80 586T92 669Q83 680 71 688T49 708Q52 737 66 755T103 791V794Q103 800 101 806T98 819Q98 821 98 822T99 826Q111 834 128 841T159 848Q168 848 175 844Q235 866 293 894Q312 895 331
900T365 920Q375 923 387 925T411 932T433 941T451 955Q458 952 467 952Q479 952 491 958T512 973Q514 973 516 973T522 972Q532 972 539 976T555 985T573 995T595 999H601Q605 999 608 998Q622 1001 636 1008T664 1015Q674 1015 680 1009Q683 1014 688 1019T698
1027Q702 1029 708 1029T719 1031T727 1035T731 1044Q735 1042 739 1042Q744 1042 748 1045T756 1052Q763 1050 766 1045T773 1035T782 1025T799 1023Q801 1010 810 1001Z" />
<glyph unicode="6" glyph-name="six" horiz-adv-x="905" d="M834 197V184Q834 178 833 173Q831 171 827 163T820 152Q812 137 808 124T804 94Q789 80 776 65T751 34T724 4T692 -20Q688 -31 681 -37T671 -56Q638 -81 605 -107T537 -156T465 -199T387 -231Q386 -232
383 -233T377 -234Q372 -234 370 -228Q341 -246 306 -250T238 -255Q221 -255 205 -255T172 -254Q156 -243 140 -235T109 -218T83 -195T65 -160Q56 -153 51 -149T33 -145Q32 -140 34 -138T36 -131Q34 -126 29 -125T18 -124Q-2 -77 -11 -28T-20 73Q-20 103 -17 132T-7
191Q3 201 7 216T15 249T22 282T36 309Q33 319 33 332Q33 340 36 348T50 356Q48 363 48 373T47 388Q58 413 66 439T84 492T103 544T129 593Q133 623 144 648T168 696T196 743T219 794Q226 795 229 799T235 809T242 818T255 822Q258 834 264 844T277 864T290 883T301
905Q316 916 332 925T364 944T391 968T409 1001Q441 1010 467 1025T523 1052Q534 1052 533 1048T532 1038Q532 1033 535 1030Q545 1025 554 1025Q562 1025 570 1026T587 1027H596Q597 1023 597 1019V1011Q597 983 583 954T545 908V894Q541 894 539 892T534 886T528
881T520 880Q518 874 518 869Q518 866 518 864T520 858Q512 858 507 861T499 872Q488 878 474 881T452 894Q441 887 425 878T398 862L388 851Q376 837 365 827T348 798Q316 772 295 740T262 669Q254 665 251 656T237 647V645Q237 641 239 639T241 633V629H238Q234
629 231 628T226 626Q224 610 219 595T207 564T197 534T194 504Q187 502 186 497T179 489Q179 474 174 460T162 432T152 403T151 374Q142 363 139 350T135 324T131 297T119 273Q117 251 112 233T97 195Q102 187 102 175Q102 168 101 161T100 146Q100 135 104 127Q124
134 129 159Q145 162 155 170T174 187T193 205T219 216Q243 245 272 267T330 313H333Q346 313 361 322T384 342H386Q389 342 391 340T397 338H401Q408 343 414 347T427 356Q447 369 470 376T516 392Q531 398 545 402T577 407Q591 407 605 403T634 399Q642 399 653
402Q687 389 719 373T785 342V335Q785 331 785 328T790 321Q793 316 797 312T805 303Q820 280 827 252T834 197ZM728 238L722 248Q719 253 718 259Q708 259 702 262T691 271T682 283T671 295H662Q654 295 647 297L634 301Q628 303 621 305T602 307Q567 307 535
296T470 278Q462 267 451 262T434 245Q414 243 399 236T372 220T346 202T315 187Q310 175 300 169T279 156T259 142T248 120Q241 114 229 116Q227 110 227 105Q227 102 227 100T229 94H226Q217 94 213 91T207 82T202 72T194 62Q182 54 172 46Q150 28 137 3T112
-49Q138 -108 179 -157Q181 -156 185 -156Q197 -156 209 -164T243 -172Q251 -172 259 -172T276 -171Q283 -171 289 -171T301 -174Q318 -167 337 -161T370 -142H387Q398 -132 405 -128T427 -124Q444 -108 460 -97T499 -81Q503 -66 506 -62T527 -59Q559 -24 595 5T664
70V75Q664 80 665 84T668 94Q674 94 677 96T685 101Q700 136 712 167T728 238Z" />
<glyph unicode="7" glyph-name="seven" horiz-adv-x="859" d="M859 392Q845 382 827 380T792 377Q776 377 761 378T731 379Q718 379 705 377T680 367Q672 369 665 370T649 371H640Q638 362 631 360T615 357Q608 357 601 358T587 359Q573 354 560 353T532 345Q510
298 494 248T451 152V130Q418 56 400 -22T375 -181Q392 -193 407 -207T432 -240Q423 -254 409 -261T378 -268Q361 -268 344 -262T312 -243T289 -215T280 -181Q280 -167 286 -153Q275 -128 275 -101Q275 -68 289 -38T322 19Q320 23 320 26T319 33Q319 50 328 64T343
94Q347 108 346 121T350 148Q354 158 361 164T372 180Q375 188 375 196T379 213Q381 220 386 225T393 238Q404 264 409 291T429 345Q424 345 419 345T408 346Q400 346 396 343T393 331Q385 334 378 337T360 342Q351 337 343 332T325 321Q320 325 314 325T301 326Q291
326 277 323T257 309Q247 312 237 313T216 314Q188 314 160 310T104 305Q87 305 70 308T38 321Q39 326 39 330V339Q39 347 37 352T31 364Q44 381 52 395T85 417Q97 420 109 420H134Q146 420 155 421T174 428H176Q180 428 180 425T185 421Q189 421 194 422T203 424Q211
425 219 425T237 426Q248 426 258 426T281 425Q303 425 325 427T368 438Q384 435 400 435Q417 435 432 437T465 442Q484 468 495 498T516 558T539 618T572 672Q582 708 597 742T637 805Q642 833 653 853T683 894Q684 902 680 905T676 915Q634 904 590 892T502 862T418
822T343 772Q328 769 317 762T296 748T274 734T246 726Q240 714 229 707T214 686Q189 673 164 661T117 633Q94 637 73 652T52 693Q52 706 58 717T74 736Q98 742 120 757T165 784Q173 789 181 793T199 800Q202 802 206 802T214 805Q219 807 225 812T237 821Q257
835 279 846T327 858H329Q332 863 337 866L348 872Q354 875 358 879T365 891H368Q373 891 376 893T383 897T390 901T400 901Q408 909 418 914T437 924T456 934T472 948Q475 946 481 946Q487 946 494 947T508 948Q513 948 514 953T515 963Q543 963 561 980Q586 981
610 988T657 1005T703 1021T752 1030Q755 1021 762 1017T780 1009L800 1003Q810 1000 816 994Q814 989 814 982T812 966T808 952T799 944Q791 913 778 884T744 829V812Q725 786 711 759T682 702L655 645Q642 617 626 590V568Q619 563 616 556T609 540T602 525T590
514V511Q590 494 585 482T572 457Q576 449 583 447T597 445T612 445T626 438Q644 445 666 445Q686 445 706 442T746 438Q759 438 762 442T773 453Q785 451 795 447T816 437T837 427T859 421V392Z" />
<glyph unicode="8" glyph-name="eight" horiz-adv-x="749" d="M820 983Q820 959 807 936T768 908Q759 888 746 873T718 844T689 816T664 783Q654 781 648 774T632 765Q621 751 610 740T582 722Q528 647 479 570T381 414V408Q381 397 377 390T370 374Q380 361 393
352T421 335T448 316T470 292Q481 291 488 286T506 281Q510 270 517 263T534 250T552 239T570 227Q576 212 586 200T610 180Q614 168 619 157T630 136T639 114T643 89Q643 73 639 58Q620 35 606 8T574 -45Q542 -64 510 -82T449 -124Q431 -125 417 -131T388 -150Q355
-157 323 -164T256 -172Q224 -172 206 -166T174 -150T146 -128T108 -102V-99Q108 -94 110 -92T112 -85Q112 -79 105 -67T94 -49Q91 -30 91 -9Q91 44 104 87T138 171T180 252T219 338Q208 356 190 366T152 381Q144 403 129 415T99 443Q87 460 84 476Q83 478 83 478T83
481Q81 487 76 486T69 489Q67 492 66 506T63 538T62 571T61 593Q66 605 71 619T82 646T97 669T119 686Q119 697 125 703T130 722Q147 729 160 740T188 762Q195 767 202 769T216 776Q221 780 220 782T223 791Q238 790 254 802T281 826H284Q300 826 314 834T345 841Q350
851 360 856T381 865T404 872T424 884Q452 888 479 897L534 915Q562 924 589 932T646 944Q651 953 659 958T675 970Q685 979 692 991T707 1013T725 1031T752 1039Q768 1039 780 1030T797 1006H799Q810 1006 815 1013Q820 998 820 983ZM531 111V116Q520 131 509
145T484 173Q479 178 476 186T467 199Q457 207 444 209T420 220Q415 224 411 229T402 238Q396 243 390 244T377 249Q371 253 367 259T355 270Q348 275 340 276T324 281H316Q314 274 311 270T306 262T302 252T302 238Q300 239 297 239Q292 239 292 236T288 230Q266
185 247 140T214 45Q213 43 211 34T209 23Q209 18 211 14T213 5Q213 3 212 1Q209 -3 208 -8T202 -16Q206 -26 206 -35T209 -52Q221 -66 239 -72T273 -85Q284 -79 297 -77T322 -72T347 -65T370 -52H374Q391 -52 400 -44T420 -24Q439 -21 450 -12T471 8T490 31T513
51Q515 60 518 66T524 80T529 94T531 111ZM506 798Q496 798 491 793T477 786Q474 796 465 796Q457 796 447 790T427 783Q421 783 417 786Q402 769 378 764T334 755Q319 729 288 722Q288 725 288 729T283 733H281V731Q281 726 278 724T276 715Q256 706 241 693T213
664T189 631T166 597Q166 592 166 586T167 574Q167 564 162 554Q170 533 179 514T202 478T232 449T273 431Q273 434 276 435T281 435Q299 472 320 509T374 575Q386 599 401 622T431 669Q434 691 444 706T466 735T489 763T506 798Z" />
<glyph unicode="9" glyph-name="nine" horiz-adv-x="939" d="M970 772Q970 746 963 722T950 672Q921 650 895 627T839 583Q823 554 813 518T793 450Q792 447 792 444Q792 439 794 436T797 427V426L796 424Q792 409 788 395T780 367Q771 322 764 279T745 191Q745
190 745 168T743 118T742 67T741 37Q741 -8 749 -50T785 -128Q782 -137 782 -147Q782 -158 785 -167Q780 -175 776 -182T767 -196T755 -207T737 -211Q723 -211 706 -204T678 -188Q679 -183 679 -173Q679 -152 673 -131T661 -87T648 -41T642 8Q642 16 644 25T646
43Q646 48 641 50T638 58V65Q638 70 640 73T645 80Q644 93 644 105V130Q644 202 653 273T681 414Q678 421 678 430Q678 439 681 448T684 468Q684 475 681 481Q678 483 670 483Q654 483 641 476T616 457Q574 443 533 427T449 399Q431 386 409 379T364 366T317 355T272
342Q259 343 247 342T221 341Q205 341 189 345Q189 346 187 346Q180 346 179 341T171 335Q165 335 160 337T147 340Q141 340 135 339T122 335Q101 343 82 350T39 359Q31 367 26 378T7 392Q4 401 2 410T0 429Q0 451 5 467T21 497T46 526T79 557Q102 568 119 585T158
614Q172 631 189 643T225 667T261 691T294 719Q310 722 324 729T353 745T381 761T413 772Q418 777 423 784T434 794Q448 802 464 807T497 819Q527 832 555 843T612 863T671 877T735 884Q736 881 739 881T745 880Q760 868 775 857T807 837Q828 839 841 846T871 862Q900
853 925 838T968 798Q969 792 969 786T970 772ZM745 705Q728 715 715 724T701 757Q701 767 702 772Q692 772 687 777T671 783H667Q647 772 626 766L584 754Q563 748 542 741T502 722H466Q453 704 436 693T399 673T360 655T326 633Q321 629 316 620T306 610Q304
610 302 610T297 611H294Q287 606 281 600T269 587T256 577T240 571Q223 554 208 541T172 507Q170 496 164 488T150 473T138 457T132 440V435Q143 432 154 427T175 417Q183 417 192 417T209 416Q257 416 302 427T390 453T477 486T566 514H570Q574 514 577 512T584
510Q587 510 588 511Q601 532 625 543T673 566T712 596T724 647Q734 659 738 674T745 705Z" />
<glyph unicode=":" glyph-name="colon" horiz-adv-x="336" d="M233 620Q233 606 229 594T224 567Q224 555 230 546Q224 534 216 528T197 516T177 505T159 492Q148 494 139 498T120 502Q113 502 104 499V502Q104 512 98 516T85 523T70 529T61 542Q67 551 67 559Q67
565 65 572T61 585Q75 593 85 603T96 631Q96 636 94 646Q104 648 114 648T135 650T154 656T169 671Q180 669 186 663T205 656Q205 633 230 635Q233 629 233 620ZM227 98Q227 72 215 53T195 11Q181 8 165 4T140 -10Q129 0 118 7T104 33Q102 33 101 33T98 34Q92 34
87 32T76 29Q71 40 71 52V86Q71 92 69 97Q80 100 85 108T95 126T106 143T126 152Q125 156 127 157T130 162Q143 160 160 156T192 145T217 127T227 98Z" />
<glyph unicode=";" glyph-name="semicolon" horiz-adv-x="288" d="M190 72Q190 34 183 -2T165 -75Q160 -80 157 -86T147 -96V-115Q113 -162 81 -210T3 -297Q2 -305 -3 -309T-7 -323L-10 -322Q-15 -322 -16 -327T-26 -330Q-27 -337 -29 -343T-33 -358Q-47 -365
-63 -370T-96 -375Q-100 -375 -103 -375T-112 -373Q-120 -366 -121 -354T-133 -337V-331Q-133 -319 -129 -312T-122 -294Q-118 -291 -114 -290T-104 -287Q-97 -269 -84 -256T-58 -230T-32 -203T-14 -168Q-6 -164 -2 -158T10 -146V-141Q10 -133 13 -128T20 -119L29
-112Q34 -109 36 -103Q41 -90 45 -76T55 -47Q62 -30 68 -13T79 22Q80 26 80 29V36Q80 52 76 67T72 98V104Q91 131 126 131Q146 131 163 121T190 94V72ZM196 546Q187 529 174 517T153 488Q148 489 145 489T137 490Q125 490 124 477Q114 482 110 489T91 497Q84 497
81 496Q81 498 81 499T82 502Q82 510 75 510T62 510Q61 524 56 537T38 556Q47 575 51 595T70 632Q81 631 90 629T111 626Q116 626 119 626T127 628Q145 623 159 614T188 592V585Q188 574 191 565T196 546Z" />
<glyph unicode="&lt;" glyph-name="less" horiz-adv-x="819" d="M758 -17Q758 -26 754 -29T745 -35T736 -41T732 -50Q732 -54 736 -54T743 -57Q723 -65 705 -76T665 -90Q664 -84 660 -81T651 -76T642 -70T636 -61Q588 -38 541 -11T457 57Q456 56 453 56Q445 56
443 61T431 65L399 99Q383 116 359 125Q350 138 339 148T317 169T296 190T278 215Q269 218 260 223T242 235T223 245T206 251Q202 264 194 273T176 289T155 302T134 315Q123 342 102 358T62 394Q59 409 55 424T51 454V459Q63 475 79 486T109 513Q130 513 151 521T193
542T234 566T273 588Q277 590 278 592T281 597T283 601T288 606Q341 634 385 665T472 738Q484 749 495 761T518 785Q518 787 522 787Q524 787 525 786T532 785Q547 794 547 810Q553 811 559 813T571 821L589 838Q606 855 627 864T672 879Q678 875 685 873T698 867T708
858T712 843Q706 833 700 825T688 809T678 792T672 771Q658 764 646 755T621 736T596 717T568 702Q566 697 563 693T561 681Q501 639 443 595T324 509Q304 507 294 496T273 469Q241 458 216 437Q235 398 265 370T328 315Q327 310 326 306T324 296Q324 286 331 286Q336
286 340 288T349 290Q348 282 353 279T356 265H378Q419 238 455 206T532 146Q532 140 535 137T536 125Q540 118 548 118T561 115Q563 113 563 109T564 103Q566 101 577 100T593 96Q601 92 607 85T622 72Q627 69 631 68T640 65Q651 57 656 51T678 45Q681 45 684
45T690 46Q699 41 710 35T732 22T750 5T758 -17Z" />
<glyph unicode="=" glyph-name="equal" horiz-adv-x="1163" d="M925 436Q925 425 920 417T908 401T896 383T893 358Q879 350 868 345T845 336T821 331T792 329H775Q761 337 754 350T735 376H730Q722 376 718 379T707 387Q693 386 675 386T639 386T603 382T574
372Q545 375 515 375Q479 375 438 370T362 351Q356 352 350 352H338Q304 352 275 340T215 311H210Q195 311 181 307T154 298T126 287T97 279Q90 277 85 274T72 271Q59 271 49 278T31 296T19 320T15 344Q15 377 40 397H69Q86 406 104 411T140 420L176 429Q194 434
212 440H216Q233 440 250 444T284 454Q289 456 296 458T309 462Q319 463 328 463T347 463L413 466Q460 468 506 475T599 490Q607 488 613 485T628 480Q646 489 667 487T707 490Q725 488 743 487T780 485Q799 485 817 485T854 487Q871 476 888 469T923 452Q924 447
924 444T925 436ZM1102 203Q1102 189 1098 177T1091 150Q1080 144 1068 136T1044 128Q1041 128 1033 130T1015 136T996 142T980 146Q975 142 968 142T958 135Q952 137 946 137H935Q905 137 876 131T817 125Q803 125 790 128Q742 119 695 116T599 111Q575 97 547
96T492 91Q481 89 472 87T453 82H449Q443 82 440 84T431 89Q410 76 397 74T359 71Q354 71 339 67T316 61Q297 58 274 55T228 48T184 36T147 17Q135 15 123 15T97 13Q89 18 84 25T73 41L63 57Q58 65 50 71Q63 85 73 101T100 125H111Q115 125 119 125T126 121Q180
140 234 150T345 167Q393 173 441 180T535 204Q539 202 543 202T551 201Q566 201 578 207H591Q641 207 690 216T790 228Q801 229 812 229T836 228Q846 228 856 229T876 236H893Q904 236 916 236T940 237Q948 237 958 236T976 228Q1001 238 1024 238Q1038 238 1052
236L1080 232L1102 207V203Z" />
<glyph unicode="&gt;" glyph-name="greater" horiz-adv-x="730" d="M669 483Q669 462 664 447T636 423Q634 411 628 404T614 391T602 376T596 354Q577 340 562 323T531 290T498 259T457 237Q426 202 394 170T324 111Q316 94 304 80T278 53T252 27T230 -4L224 -2Q221
-1 218 -1Q214 -1 213 -4Q198 -17 189 -36T171 -75T155 -115T134 -151Q129 -143 122 -143Q117 -143 112 -144T100 -146Q93 -146 87 -143Q82 -132 76 -122T62 -100L61 -94Q61 -79 64 -68T73 -46T84 -25T91 0Q128 42 165 83T249 158Q258 191 295 204Q300 213 305
219T313 237Q322 241 329 247T343 261T357 276T374 287Q385 308 401 326T434 361T467 396T493 437Q472 456 451 470T402 490Q397 498 399 505H378V508Q378 515 374 518T364 524T354 530T349 542Q334 545 324 552T303 567T283 583T256 592Q254 597 251 600T249 609Q229
619 213 633T182 662T150 691T116 717Q111 729 101 741T80 767T61 792T53 817Q53 823 53 829T54 840Q54 848 51 857Q57 858 60 862T65 872T70 881T77 886Q93 886 105 883T129 873T152 860T177 846Q180 833 186 824T199 805T213 787T227 767Q250 747 274 730T313
685Q321 685 325 681L333 674Q337 671 342 668T356 667Q361 661 359 652Q372 643 384 632T410 612T439 596T471 592Q494 556 539 559Q544 549 554 546T572 541Q575 540 577 539T582 538Q593 538 596 543T607 549Q622 539 638 532T668 513Q669 505 669 498V483Z"
/>
<glyph unicode="?" glyph-name="question" horiz-adv-x="829" d="M840 881Q840 857 831 834T819 788Q790 739 759 692T683 606V602Q683 595 680 592T676 581Q657 570 642 556T612 526T582 495T550 466L551 464Q551 459 548 457T547 447Q533 438 521 428T504 401Q480
390 465 371T435 330Q423 328 412 322T399 301Q363 290 340 265T296 208Q297 200 297 192T298 176Q298 142 285 108Q294 81 294 54Q294 29 285 7Q263 3 247 -6T207 -16Q202 -16 198 -16T188 -14Q175 2 169 21T148 57Q156 61 158 70T160 88Q160 96 159 105T153 122Q159
147 159 175Q159 212 148 251Q158 265 168 277T191 301Q196 300 199 299T208 297H213Q241 301 259 310T293 331T324 356T360 383Q369 395 380 405T402 425T423 446T439 473Q459 484 474 498T497 535Q519 549 536 568T571 607T606 645T647 678Q647 679 647 680T646
683Q646 688 647 692T650 702Q661 705 665 713T679 724Q683 746 693 760T715 792Q719 798 721 805T726 817Q728 822 733 824T743 828Q741 841 741 858T733 886Q706 897 679 897Q661 897 644 894T610 887T575 881T540 879Q495 858 450 840T356 814Q326 791 296 775T227
753Q221 747 199 728T153 689T108 654T82 638Q73 638 68 644T58 659T50 674T41 685Q46 696 47 709T48 735Q57 751 71 762T100 784T129 804T156 828Q171 830 184 837T209 851T234 865T260 871Q270 878 281 882T303 890T326 898T346 910H364Q388 925 414 934T468
950T522 965T575 982Q604 982 632 987T689 992Q729 992 763 980T826 939V918Q840 903 840 881ZM349 -179Q346 -183 343 -185T336 -190T332 -196T332 -205Q307 -206 294 -217T267 -248Q249 -248 242 -257T220 -273H216Q194 -273 180 -264T158 -239T146 -206T141
-169Q160 -156 181 -147T225 -137Q243 -137 260 -143Q266 -143 269 -140T276 -132T284 -125T296 -122Q310 -135 323 -150T349 -179Z" />
<glyph unicode="@" glyph-name="at" horiz-adv-x="1335" d="M1279 764Q1278 735 1269 708T1261 652Q1246 623 1235 593T1207 535Q1201 525 1195 518T1184 504T1175 488T1171 466Q1166 462 1160 462T1150 459Q1148 456 1144 447T1135 433Q1124 419 1111 407T1089
380Q1068 368 1051 352T1018 318T984 285T945 258Q936 235 920 219T888 182Q883 181 878 181T868 180Q850 180 837 187T812 202T786 217T752 225Q747 239 740 250T723 272Q722 283 722 292T723 312Q723 321 723 328T720 344Q711 343 703 340T694 326Q688 328 684
328Q672 328 663 323T645 311T625 300T601 294Q599 292 594 290T590 283Q571 281 554 275T525 251Q521 252 513 252Q502 252 489 248T468 232Q460 230 451 229T434 228Q411 228 389 235T343 244Q333 264 322 285T300 326Q303 342 307 358T314 390Q333 404 347 421T374
455T403 487T443 513Q445 520 450 525T458 538Q493 552 524 575T590 616Q611 627 634 641T681 667T729 687T778 696Q790 696 801 695T823 692Q833 680 845 670T867 649T885 625T892 595Q892 581 885 569T878 542Q878 532 881 529T888 519Q887 507 878 495Q882 480
882 463Q882 437 877 412T872 361V350Q872 345 873 340Q942 382 1000 435T1103 556Q1111 557 1116 561T1128 570Q1142 595 1153 620T1179 671Q1181 690 1185 709T1200 745Q1200 756 1200 766T1201 787Q1201 798 1200 808T1196 828V833Q1196 838 1200 840T1204 847Q1204
856 1198 864T1186 879Q1186 896 1180 912T1164 943Q1152 961 1128 977T1074 1005T1016 1024T965 1031Q955 1031 946 1030T928 1025Q911 1035 895 1035Q881 1035 851 1024T787 998T725 968T683 943Q670 934 660 925T633 910Q620 895 605 883T573 858T543 832T518
800Q514 797 509 796T501 793Q497 788 491 779T480 765Q460 742 441 722T411 671Q391 652 376 630T348 583T320 537T286 495Q272 464 256 435T225 377T195 317T171 254Q160 242 154 227T142 195T130 162T114 132Q110 121 109 109T108 83Q108 74 109 61T111 34T115
8T121 -14Q125 -28 136 -41T156 -66Q160 -70 162 -74T167 -83Q171 -89 179 -94T198 -104L218 -112Q228 -116 236 -119Q240 -119 243 -118T251 -117Q255 -117 257 -120T260 -126Q285 -116 310 -116T361 -110Q371 -107 378 -103T393 -93Q394 -93 396 -92T401 -91Q403
-91 406 -93T411 -97Q418 -90 427 -86T445 -78T463 -70T479 -57Q498 -56 514 -50T544 -29Q546 -30 551 -30Q556 -30 565 -29T580 -26Q585 -24 584 -19T587 -11Q591 -9 605 -5T626 2Q647 10 667 19T709 37Q720 42 731 45T752 53Q758 56 759 62T770 69Q774 69 776
66T782 63L784 65Q841 93 899 111T1017 151Q1022 139 1031 139V130Q1032 116 1028 103Q1011 93 991 85T956 60Q953 61 949 61Q935 61 930 54T913 43Q910 41 907 41T900 40Q884 36 869 29T845 7Q805 -3 766 -19T694 -61Q675 -61 661 -68T632 -86Q628 -88 624 -91T615
-97Q605 -102 595 -104T573 -111Q547 -120 521 -132T472 -162Q455 -165 439 -172T408 -190Q404 -191 401 -191T395 -190Q387 -190 389 -198Q383 -194 377 -194Q363 -194 352 -200T326 -206H319Q316 -206 314 -205Q303 -208 293 -211T271 -219Q262 -212 252 -212Q241
-212 243 -223Q230 -217 213 -213T180 -205T149 -198T128 -190Q123 -187 120 -182T113 -171T105 -161T94 -157Q92 -157 91 -157T88 -158Q86 -142 76 -135T52 -122Q35 -96 27 -65T6 -4L5 2Q5 11 6 21T7 41Q7 47 6 52T5 65Q5 73 11 75T17 86Q17 90 13 90T8 93L9 96Q13
108 16 123T24 152T36 179T56 197L55 203Q55 212 57 221T61 240T66 258T67 275Q83 282 91 297T106 330T120 366T142 397Q144 399 144 402Q144 404 143 406T141 413Q141 415 142 416Q177 472 212 529T279 645Q285 648 289 652T297 662T305 672T317 678Q319 700 329
714T352 741T376 767T393 800L415 810Q426 834 447 858T492 905T543 947T590 982H595Q600 982 603 984T611 986Q626 998 641 1009T673 1029Q687 1037 703 1042T734 1054Q780 1075 824 1093T922 1112Q935 1112 947 1110T974 1108Q1014 1108 1043 1099T1096 1074T1145
1039T1200 1000Q1208 965 1239 946Q1241 916 1252 896T1272 850L1268 832Q1266 823 1266 814Q1266 800 1279 796Q1274 789 1274 780Q1274 772 1279 764ZM744 563V566Q739 572 732 572Q726 572 720 570T707 568Q698 568 694 570Q683 559 669 552T641 539T612 525T587
505L565 498Q557 488 546 481T524 468T502 453T486 433Q485 434 483 434Q478 434 476 429T468 426Q465 414 459 405T446 388T434 370T429 344Q439 339 456 339Q481 339 505 348T554 358Q562 365 567 372T580 387H583Q602 387 618 396T651 417T684 435T723 440Q733
459 733 479Q733 496 729 512T723 545Q728 551 736 552T744 563Z" />
<glyph unicode="A" glyph-name="A" horiz-adv-x="658" d="M817 -238Q814 -255 804 -262T784 -284H780Q770 -284 761 -286T741 -291Q736 -289 729 -288T720 -281Q712 -285 698 -285Q675 -285 655 -272T612 -252Q606 -240 598 -231T581 -212T564 -193T551 -169Q549
-163 546 -162T537 -162Q538 -151 535 -143T519 -133Q519 -120 515 -111T506 -96T494 -82T483 -65Q474 -63 466 -63T447 -62Q399 -62 354 -80Q349 -82 344 -85T333 -90Q331 -90 330 -90T326 -91Q319 -91 313 -89T300 -86Q297 -86 294 -87T287 -90Q272 -95 259 -96Q218
-104 173 -108T89 -129Q81 -133 79 -141T78 -158Q67 -166 62 -179T52 -206T42 -235T28 -259Q31 -265 31 -272Q31 -287 21 -302T6 -331Q1 -345 -2 -358T-11 -383T-27 -401T-57 -408Q-75 -408 -88 -401T-109 -383T-122 -357T-130 -327Q-119 -305 -109 -289T-94 -248Q-76
-235 -68 -217T-58 -176Q-47 -169 -43 -158T-37 -133Q-61 -131 -87 -129T-137 -119Q-137 -117 -137 -115T-136 -111Q-136 -98 -142 -88T-148 -65V-57Q-140 -49 -134 -41T-120 -25T-104 -14T-81 -9Q-62 -9 -44 -11T-7 -14Q6 -14 20 -11Q42 34 59 80T85 175Q92 185
98 198T107 227T112 256T114 283Q125 296 129 315T137 354T143 395T157 430V439Q158 454 154 466Q159 468 160 475T164 487Q165 533 174 577T189 667V670Q189 675 186 675T182 681Q182 690 184 705T188 730Q194 784 194 837Q194 882 191 926T185 1015L193 1027Q197
1033 200 1039Q210 1043 216 1047T234 1052Q237 1052 239 1052T243 1051Q249 1047 252 1040T259 1027T269 1017T286 1015Q291 987 314 986Q319 972 326 958T347 936Q346 932 346 925Q346 911 352 898T369 874V872Q369 861 361 857Q370 847 374 833T381 805T388
777T404 757V754Q404 749 401 748T397 742Q415 709 422 670T440 595Q444 591 449 590T458 585Q452 581 452 571T447 556Q455 549 455 536T462 516V512Q462 508 460 506T458 499V495Q466 460 470 425T480 355T491 286T508 218Q509 217 509 215Q509 210 505 210T501
204Q501 199 504 193T512 182Q511 178 511 170Q511 155 516 141T528 114T540 85T544 53Q550 44 559 38T579 27T597 15T609 -4Q601 -11 598 -21T587 -40Q594 -57 603 -71T623 -100L644 -128Q655 -142 663 -158Q674 -158 679 -164T695 -169Q699 -177 698 -187Q718
-180 738 -180Q749 -180 758 -181T778 -182Q790 -182 799 -179Q803 -185 805 -192T808 -208L811 -224Q813 -232 817 -238ZM440 39Q426 108 412 176T386 315Q380 352 377 389T370 462T358 535T336 606V608Q336 611 338 613T340 620V624Q327 633 322 649T314 684T305
720T286 750Q281 692 276 635T268 519Q258 513 255 499T252 474Q252 466 253 458T257 440Q239 395 231 348T213 253Q212 250 210 240T204 218T199 199T197 189Q196 182 196 175T197 161L182 146Q178 108 168 73T146 0Q153 -1 159 -1T173 -2Q205 -2 237 2T302 11Q313
13 325 14T348 16Q353 17 360 17T372 17Q380 19 382 23T393 29Q399 26 407 26Q416 26 424 30T440 39Z" />
<glyph unicode="B" glyph-name="B" horiz-adv-x="1234" d="M1193 170Q1193 157 1186 147T1182 122Q1178 115 1172 111T1167 96Q1146 85 1129 69T1091 37Q1079 28 1071 25T1050 14L1025 -2Q1008 -11 991 -20T959 -43Q938 -44 916 -54T874 -73Q866 -76 858 -77T842
-83L826 -90Q812 -97 793 -104T759 -112Q750 -116 744 -126Q711 -137 676 -143T608 -162Q597 -167 586 -175T561 -183Q558 -188 557 -195T554 -209H551Q547 -209 547 -205T544 -201Q541 -201 540 -202Q527 -205 516 -207T490 -209Q482 -209 465 -207T439 -202Q433
-199 429 -191T422 -174T416 -156T411 -140Q414 -129 421 -122T432 -104Q441 -103 450 -101T468 -100Q499 -91 530 -83T593 -65T654 -45T712 -18H733Q751 -8 773 -1T809 22Q842 29 878 41T938 79Q953 81 964 86T985 98L1005 111Q1015 118 1028 122Q1036 130 1043
139T1060 154Q1057 170 1044 178T1021 197H999Q973 213 944 221T885 240Q883 241 880 241Q873 241 872 236T863 232Q854 238 844 239T823 241Q809 241 796 240T768 238Q761 238 754 239T740 244H727Q706 244 686 243T645 241Q634 241 624 241T604 244Q583 234 559
230T510 224T459 221T411 215Q405 216 400 216T389 217Q384 217 379 217T368 215Q355 229 337 235T300 244Q286 261 280 278T271 318H275Q282 318 282 325T286 337Q291 343 299 345T316 351T331 358T343 373H356Q360 373 364 373T372 369Q376 373 382 376T393 382T403
389T408 401Q409 398 413 398Q417 398 420 400T429 401Q434 415 446 416T468 423Q475 427 481 432T494 443L554 489L646 559Q692 594 740 624Q742 630 746 633T754 639T760 647T762 659Q776 662 783 670T797 687T809 706T827 721Q826 724 826 730Q826 738 827 746T835
760Q826 781 804 790T762 807H759Q754 807 754 803T748 796Q732 800 712 800Q692 800 673 797T633 796Q630 792 627 788T618 781Q597 780 576 775L534 765L511 760Q506 758 504 753T501 742Q495 743 494 747T486 753Q463 739 437 730T389 702Q382 710 369 710Q358
710 345 703T329 685Q319 687 314 687Q303 687 296 681T281 668T266 653T246 645Q246 640 246 635T247 623Q247 578 242 534T237 444Q237 434 238 425T239 404Q239 401 235 391T228 376Q232 365 232 354T236 333Q227 325 227 311Q227 305 227 299T228 287V275Q225
255 224 235T223 194Q223 185 223 164T226 116T232 61T242 10T259 -29T283 -44Q286 -44 290 -43T295 -38Q295 -34 294 -31T292 -24L293 -22Q301 -26 310 -27T330 -29T349 -32T365 -43Q361 -51 361 -60Q361 -72 367 -82T375 -104Q356 -110 341 -117T310 -131T278
-143T239 -151Q225 -142 215 -135T188 -126Q162 -91 145 -48T119 43T106 137T102 227Q102 273 105 318T115 410Q117 424 119 438T123 467Q125 472 126 478T128 490Q128 507 127 524T126 557Q126 582 129 608Q130 613 132 621T135 635Q135 643 131 646T124 656Q127
666 129 675T131 695Q131 714 124 728Q129 754 139 779T174 817Q194 816 214 813T250 796Q257 800 266 801L285 803Q295 804 303 806T317 817Q337 821 360 828T400 846H422Q429 851 438 853L457 858Q467 861 475 864T489 874H493Q516 874 538 884T581 902Q586 904
596 909T611 914Q625 916 639 916T667 920Q699 925 730 931T794 938Q805 938 814 938T835 936Q836 932 840 930T847 925T854 920T856 910Q858 908 860 908Q863 908 865 911T873 914H878Q891 900 903 888T935 867Q943 837 954 808T965 746Q965 726 959 707Q945 700
939 685T928 656Q900 642 881 619T842 573H826Q822 573 820 570L811 560Q802 552 792 544T776 523Q745 506 717 485T662 441Q651 432 640 421T618 401Q612 396 605 393T591 384Q578 374 567 364T544 344Q589 346 635 346T726 348Q749 348 771 349T816 351Q820 351
823 350T830 347Q847 344 860 340Q908 331 956 324T1050 301Q1063 296 1069 290T1093 287Q1107 273 1123 265T1157 251Q1170 231 1181 213T1193 170Z" />
<glyph unicode="C" glyph-name="C" horiz-adv-x="912" d="M1076 57Q1076 49 1071 46T1068 32Q1060 31 1054 24T1040 17Q1035 17 1032 22Q1030 15 1025 12T1013 7T1001 2T993 -7H988Q976 -7 970 -17T954 -27Q951 -27 950 -26Q945 -27 946 -32T943 -40H938Q912 -40
885 -51T831 -76T775 -102T717 -119Q711 -125 703 -128T684 -134T665 -138T648 -147Q623 -149 598 -156T549 -169T499 -180T447 -183Q439 -189 430 -192T412 -202Q371 -196 331 -193T251 -179Q251 -176 249 -175T245 -174T240 -172T240 -166Q231 -169 224 -169Q214
-169 205 -164T185 -153T163 -142T139 -136Q131 -128 125 -120T115 -100Q111 -99 107 -100T99 -101Q93 -101 93 -97Q72 -82 63 -65T43 -26Q40 -19 36 -15T29 -4Q25 6 24 17T23 38T20 59T10 79Q12 117 18 155T35 231Q39 248 44 264T53 297Q54 303 56 305T61 309L65
312Q67 314 68 318L76 352Q84 385 97 416T132 473Q134 498 143 520T165 564T189 607T208 652L207 654Q207 658 211 658T218 659Q219 675 225 686T239 708T253 729T261 757Q280 768 293 784T319 818T346 852T380 879Q385 885 383 896Q414 919 447 937T509 979H545Q558
989 574 989Q586 989 597 984T619 973T641 960T663 950Q674 935 678 916T688 879Q679 852 677 824T670 767Q663 759 658 750T648 731T636 713T620 699Q612 670 595 653T562 613Q547 603 530 603Q516 603 505 609T485 626T471 649T462 674Q469 695 484 710T516 740T544
772T556 813Q556 815 556 817T555 821Q555 825 558 828T564 833L570 838Q573 841 573 845Q573 849 569 853Q531 850 512 840T481 818T462 795T437 778Q434 770 429 765T417 754T407 741T401 724H383Q379 715 372 707T357 690T344 673T340 652Q329 648 324 639T308
624V618Q308 610 305 603T304 588Q292 577 287 561T275 530Q261 523 256 511T251 483Q236 468 224 448T203 407T185 364T168 323V294Q154 278 149 257T132 218Q130 207 130 196T131 174Q131 162 129 149T122 125Q126 110 128 90T135 49T149 12T175 -11Q179 -33
194 -44T230 -63T271 -75T308 -90Q314 -87 322 -87Q330 -87 336 -89T351 -93Q365 -91 385 -91T427 -90T466 -84T495 -69Q502 -69 504 -73T514 -77Q521 -77 535 -74T564 -66T592 -56T612 -47Q615 -48 618 -48H625Q639 -48 651 -43T677 -40Q723 -17 770 -1T867 29Q873
38 881 42T900 48T920 52T939 57Q945 60 949 64T961 72Q968 75 976 76T993 78T1009 83T1022 93Q1036 87 1050 80T1075 60L1076 57Z" />
<glyph unicode="D" glyph-name="D" horiz-adv-x="930" d="M935 698Q935 641 920 593T882 501T831 414T780 323Q774 323 772 320T768 313T764 305T755 301Q746 279 732 260T703 222T673 184T647 143H637Q583 65 516 3T368 -108Q366 -114 362 -118T360 -129Q349
-135 342 -144T327 -164T313 -183T293 -198Q278 -195 265 -193T237 -190Q231 -190 225 -190T214 -190Q203 -188 196 -182T174 -175Q167 -175 163 -176Q155 -162 145 -148T134 -116Q134 -103 137 -92T141 -69Q141 -45 133 -22T124 25Q124 33 126 40T128 56Q128 65
120 72Q121 77 124 82T127 93Q129 101 128 110T127 128Q127 149 129 170T138 211Q137 217 135 222L131 232Q138 253 140 279T142 331V384Q142 410 145 433Q147 443 149 452T152 471Q152 479 149 485T141 498Q148 500 149 506T150 518Q150 532 145 549Q149 566 150
583T151 618Q151 678 144 736T134 853H131Q124 853 120 850T112 844T103 838T91 836Q79 822 64 812T31 794T-4 780T-38 767Q-52 772 -62 783T-81 807Q-82 811 -82 815V823Q-82 851 -69 865T-41 900H-36Q-31 900 -28 898T-19 896H-16Q13 920 45 934T113 957Q128
972 143 980T180 988Q185 988 191 988T203 986Q244 1005 280 1018T365 1032Q371 1032 373 1035T378 1041T382 1048T389 1051Q389 1049 390 1045T395 1041Q399 1041 402 1043T411 1046Q416 1046 418 1039Q429 1046 439 1052T461 1061Q476 1058 491 1056T523 1054Q535
1054 547 1055T568 1065Q572 1066 572 1061Q581 1053 591 1051T612 1048T634 1046T654 1039Q662 1037 667 1033T680 1025Q686 1023 696 1022T712 1018Q717 1016 717 1012T723 1004Q732 997 747 996T773 986Q777 964 795 957T830 943Q836 937 834 929Q846 920 855
909T873 886T890 861T909 839Q908 830 911 825T913 810Q925 799 935 781Q929 772 929 761Q929 751 932 741T935 721V698ZM842 720Q842 749 831 776T812 831Q799 831 796 840T783 857Q764 861 759 886Q739 894 718 904T683 932Q647 943 611 954T536 966Q529 966
524 966T513 965Q505 965 496 962T479 959Q470 959 461 965Q441 954 418 948T370 938T323 927T282 907Q276 909 271 910T260 911Q251 911 246 907Q243 905 243 902T242 896T239 890T231 889Q231 884 231 880T230 871Q230 845 235 820T241 768Q241 759 240 750T236
731Q241 719 241 705T242 677T243 650T250 624Q247 609 246 594T245 564Q245 529 248 495T252 426Q252 417 252 407T250 387Q248 374 243 362T238 336Q238 327 239 318T240 298Q240 294 240 291T239 283Q234 248 231 212T228 141Q228 108 230 76T236 10Q232 3 232
-6Q232 -20 239 -34T260 -54Q292 -42 319 -23T375 17Q382 22 396 30T415 43Q420 47 423 51T432 61L476 108Q514 147 551 187T621 272Q630 286 639 299T656 328Q660 333 662 339T669 351Q672 355 676 359T684 367Q692 376 699 385T715 406Q737 438 756 470T798 535Q800
555 806 572T818 606T828 641T830 681Q835 688 838 691T842 703V720Z" />
<glyph unicode="E" glyph-name="E" horiz-adv-x="978" d="M1101 1093Q1101 1084 1101 1075T1099 1058Q1096 1053 1088 1054T1074 1055Q1069 1055 1066 1054T1062 1047Q1062 1041 1063 1039Q1055 1040 1046 1041T1030 1047Q1016 1044 1004 1039T979 1028T954 1017T927
1011Q918 1001 904 996T875 987T847 978T826 961Q804 959 784 950T745 931T705 912T662 900Q656 894 648 890T630 883T613 875T600 864H598Q594 864 592 866T586 868Q583 868 582 867Q558 856 534 844T484 821Q433 800 381 780T281 731Q270 691 263 650T238 570V523Q228
504 225 481T222 437Q222 429 222 423T223 409Q252 417 279 427T335 445Q349 450 363 452T392 459Q403 462 415 467T438 478Q468 491 499 501T564 516Q574 524 586 531T610 538Q619 538 625 535Q642 545 665 553T708 559Q713 566 720 568T735 571Q739 571 742 571T751
570Q761 577 773 580T797 585T820 590T841 602Q855 601 863 594T878 577T888 556T898 535Q896 527 892 523T883 514T874 506T869 495Q834 495 802 485T738 462T674 438T607 423Q602 418 594 415L579 410Q572 408 566 405T557 394Q551 397 544 397Q527 397 511 388T475
379Q467 379 464 380Q459 371 450 367T430 361T410 354T395 340Q392 341 388 341H382Q366 341 346 336T316 315Q308 317 302 317Q288 317 277 312T255 299L233 285Q222 278 209 275Q183 238 173 190T159 90T150 -13T134 -108Q140 -124 143 -142T148 -178T152 -216T159
-252Q164 -273 178 -289T199 -327Q204 -328 209 -328T221 -329Q257 -329 284 -315T336 -281T382 -237T431 -195H450Q457 -187 462 -178T473 -161T487 -148T507 -140Q510 -125 521 -117T536 -93Q538 -94 541 -94Q549 -94 553 -90L568 -76Q576 -68 585 -61T604 -46Q633
-25 662 -5T715 43Q716 42 718 42Q726 42 729 47T743 50Q749 59 754 68T762 89L794 85Q810 83 826 83Q831 83 835 83T844 86Q856 67 857 46T862 3Q860 3 860 3T857 4Q852 4 848 1T838 -8L828 -18Q823 -23 819 -26Q808 -33 796 -38T773 -50T752 -64T736 -86Q716
-94 698 -103T662 -122Q657 -127 653 -132T647 -143Q620 -152 603 -170T567 -209L566 -208Q559 -208 558 -213T546 -216Q527 -237 506 -255T463 -291T419 -327T378 -367Q365 -371 353 -377T335 -395H332Q321 -395 317 -400T306 -413Q285 -418 263 -424T218 -430Q202
-430 188 -424T160 -409T135 -388T113 -367Q107 -347 98 -326T88 -284Q88 -279 89 -275T91 -266Q91 -259 87 -260T80 -255Q78 -245 78 -233T75 -209Q72 -186 68 -162T58 -115Q62 -113 64 -109T70 -100Q67 -92 65 -83T62 -63Q62 -43 77 -33Q77 -26 74 -23T70 -11Q70
-9 71 0T75 22T80 45T83 60Q90 106 95 150T109 240Q99 248 84 252T62 265Q57 272 54 283T51 302Q51 331 74 348T123 369Q136 404 142 440T153 514L161 589Q165 627 173 664H167Q147 664 128 658T89 652H87Q58 675 58 707Q58 726 66 745Q82 751 95 761T121 781T149
800T180 810Q182 839 190 868T198 926Q198 932 198 938T195 950Q202 959 204 969T207 990Q207 1002 206 1013T202 1036Q211 1040 216 1044T225 1053T237 1060T257 1063Q276 1063 289 1056T313 1036T330 1009T345 979Q343 968 336 963T324 950Q326 934 328 920T328
889Q338 884 347 884Q362 884 374 892T392 914H394Q397 914 399 912T406 910H410Q421 920 434 925T461 936T488 946T514 961Q520 958 527 958Q537 958 546 962T565 970T584 979T607 983Q609 983 612 983T617 982Q624 982 625 987T625 996Q657 1004 680 1014T733
1039Q733 1040 735 1040Q738 1040 739 1037T740 1032Q746 1035 746 1042T751 1054Q755 1053 762 1053Q771 1053 780 1057T799 1066T817 1075T835 1079Q843 1079 848 1075Q854 1078 860 1083T873 1089Q875 1089 876 1088T880 1086Q885 1091 889 1094T894 1104Q931
1108 962 1120T1023 1154Q1034 1152 1044 1150T1066 1147Q1072 1136 1077 1125T1099 1115Q1100 1110 1100 1104T1101 1093Z" />
<glyph unicode="F" glyph-name="F" horiz-adv-x="907" d="M1092 587Q1092 571 1087 554T1073 523Q1060 521 1050 514T1033 505Q1020 503 1003 503T971 503Q944 501 918 497T865 487Q863 487 861 487T859 484Q859 482 860 480T861 476Q861 473 855 473Q844 473
840 480Q808 472 776 464T712 447Q696 444 681 441T649 433Q641 431 633 426L617 416Q612 417 608 417T600 418Q583 418 564 412T531 394H524Q514 394 510 397Q501 398 499 392T492 380Q458 377 425 368T360 349T296 328T230 311Q226 291 226 265Q226 245 229 219T245
175V173Q245 168 241 166T237 159Q237 133 242 110T254 65T265 21T271 -24Q271 -30 271 -35T269 -47Q272 -56 279 -62T291 -76Q292 -81 292 -85V-95Q292 -112 288 -125T278 -149T265 -172T252 -198Q242 -200 236 -200Q221 -200 212 -192T195 -173T182 -149T166
-129Q167 -124 167 -120T168 -111Q168 -91 162 -72T147 -36Q146 -2 140 31T123 96Q125 108 126 119T127 142Q127 171 124 200T123 258Q120 263 117 266T112 275H108Q93 275 79 273T51 270Q46 270 42 270T33 272Q22 283 16 297T10 326Q10 348 22 366Q47 372 71 380T119
401Q122 416 122 431T133 459Q130 467 124 473T117 489Q117 494 119 502Q129 513 133 530T140 566T146 604T159 638Q157 646 156 655T155 673Q155 685 156 697T162 721Q151 734 144 751T137 786Q137 819 169 828Q168 832 168 835T167 841Q167 850 172 858T180 874Q175
887 175 896Q175 904 178 910T183 925Q186 935 187 943T193 957T203 966T224 969Q246 969 266 956T298 925Q309 926 317 929T333 936T349 941T370 943Q373 950 380 952T396 956T411 961T420 972Q424 969 429 969Q434 969 439 970T450 972Q456 972 460 968Q486 982
515 988T574 996Q643 1034 719 1048T873 1062Q884 1062 894 1062T915 1061Q926 1059 939 1054T966 1042T992 1027T1012 1011Q1020 993 1020 976Q1020 968 1019 961T1018 945Q1018 933 1023 918Q1020 919 1013 919Q1004 919 998 915T987 906T978 897T969 893Q961
893 956 896T945 902T933 908T919 910V914Q919 925 912 928T901 939Q886 940 872 943T842 946Q822 946 811 932Q806 934 803 937T793 939H790Q736 939 684 928T581 900T479 864T377 831Q365 815 352 808T327 795T302 785T282 769T269 739T266 685Q261 679 260 672T258
659T255 646T248 635Q250 625 251 615T252 595Q252 553 238 513Q243 505 243 495Q243 484 240 475T237 455Q237 444 241 437Q247 437 248 433H254Q272 433 285 442T313 451Q316 451 320 449T327 447Q334 447 333 452T338 459L374 465Q408 471 438 479T499 505Q506
502 515 502Q523 502 532 504T549 507Q556 507 560 505Q566 509 575 511T585 523H587Q591 523 593 521T599 519H603Q624 529 641 534Q669 541 701 546T758 566Q787 566 814 575T870 585Q883 585 894 581Q904 588 917 591T940 602Q946 601 952 601T966 600Q996 600
1023 608T1080 621Q1087 613 1089 605T1092 587Z" />
<glyph unicode="G" glyph-name="G" horiz-adv-x="1008" d="M1448 466Q1446 454 1442 439T1430 412T1411 391T1385 382Q1374 382 1363 384T1340 387Q1335 387 1330 384T1319 380Q1314 380 1311 381T1302 383Q1299 383 1291 381T1274 377T1257 373T1246 369Q1219
360 1192 353T1136 344Q1130 346 1118 348T1100 351Q1088 351 1085 341T1071 326Q1059 319 1041 318T1005 315T972 308T949 287Q944 288 939 288T927 289Q895 289 867 277T810 254Q815 245 817 232T821 207T826 183T839 165Q839 159 837 155T831 148L824 141Q821
138 820 132Q817 120 817 108T803 89Q804 86 804 78Q804 68 801 59T799 39Q782 20 771 0T753 -43Q716 -80 678 -117T599 -190T515 -256T426 -312H419Q396 -312 383 -320T350 -334Q335 -330 314 -330Q302 -330 290 -331T264 -332Q247 -332 234 -328T208 -319T182
-309T154 -302Q92 -240 56 -158T20 12Q20 52 31 90T42 168Q60 204 73 242T101 318T131 392T171 462Q176 488 187 507T211 549Q211 571 220 589T232 631Q248 646 258 665T277 704T297 742T329 774Q331 781 331 789T336 803L357 826Q367 839 375 852T394 877Q400
883 407 887T419 896Q424 901 423 909T426 922Q428 924 432 926T439 930Q452 939 461 948T486 961Q500 972 511 983T535 1003T561 1017T596 1023Q600 1023 604 1023T612 1022Q653 984 663 929Q652 915 646 899T631 867Q614 861 599 850T570 826T540 805T505 796Q497
789 480 774T444 741T410 709T390 688Q387 683 385 679T381 670L355 626Q333 588 310 552T270 475Q262 457 257 439T247 401Q245 395 242 389T237 378Q226 357 219 339T211 297Q186 241 165 185T132 68Q138 48 138 28T137 -13Q137 -38 140 -54T150 -84T165 -112T182
-147Q197 -159 209 -172T232 -202Q270 -221 309 -221Q337 -221 366 -212T422 -190T476 -160T526 -129Q568 -104 599 -75T655 -14T703 54T749 132Q750 137 753 144L759 159Q762 167 764 173T767 182Q767 190 764 193T760 201Q760 209 764 212T773 218T783 225T788
240Q786 241 781 241Q776 241 771 240T761 239Q749 239 741 247Q736 245 731 241T722 231T713 222T706 218Q701 218 699 220T692 222Q675 222 662 214T634 201Q631 201 628 201T622 202Q611 202 601 199T581 191T561 184T541 182Q519 174 501 165T458 158Q451 155
444 152T429 143Q423 141 420 141Q415 141 412 146Q404 137 391 134T364 128T338 122T318 108Q307 117 292 117Q277 117 263 112T233 106Q227 106 225 108Q221 119 216 130T200 146Q198 157 197 167T195 188Q195 215 211 237Q225 242 239 245T268 254Q279 252 290
251T312 250Q353 250 392 260T469 283Q505 294 542 303T616 323Q651 332 685 343T756 358Q780 375 814 381T878 394Q924 405 969 416T1061 437Q1113 448 1162 464T1262 498H1272Q1289 498 1307 502T1343 506Q1348 506 1351 506T1359 505Q1362 505 1374 509T1391
516Q1404 502 1420 491T1448 466Z" />
<glyph unicode="H" glyph-name="H" horiz-adv-x="925" d="M945 353V346Q945 343 944 340Q933 319 917 308T877 297Q861 297 854 300T834 311Q816 309 793 308T747 303T704 293T669 275Q660 206 660 138T657 0Q665 -21 668 -46T672 -93Q679 -105 683 -117T691 -143T700
-168T715 -190Q723 -190 729 -191T743 -195V-201Q743 -216 752 -223T772 -238Q775 -249 775 -259Q775 -276 768 -291T743 -312Q733 -312 724 -310T705 -307Q698 -307 690 -309Q685 -307 682 -304T674 -297T666 -292T654 -291Q649 -277 638 -265T611 -255Q612 -251
612 -243Q612 -229 607 -217T590 -198Q585 -175 581 -148T564 -100Q564 -71 558 -45T547 10Q551 26 551 46Q551 60 550 73T549 100Q549 114 551 127T561 154Q555 164 553 174T551 196Q551 213 553 229L557 261Q555 262 550 262Q540 262 533 258L518 251Q513 252
509 252H500Q485 252 471 248T445 232Q411 232 377 226T310 210T243 191T177 172Q169 133 165 94T161 13V-11Q161 -24 163 -36Q164 -44 168 -50T173 -65Q173 -72 170 -76Q177 -88 191 -97Q206 -92 217 -92Q235 -92 251 -100T285 -112Q281 -126 273 -139T263 -169Q259
-171 256 -171T249 -171T245 -175T245 -187Q231 -194 217 -196T189 -200T160 -201T130 -202Q130 -196 128 -193T121 -188T113 -184T105 -179Q97 -172 93 -161T84 -137T74 -112T62 -90Q60 -68 59 -47T58 -4Q58 37 61 76T66 158Q57 167 46 166T23 168Q11 183 3 201T-5
240Q-5 250 -2 261Q7 264 18 267T30 283Q37 279 47 279Q57 279 67 282T87 287Q91 303 93 318T94 351Q108 372 112 397T119 445V459Q119 466 120 473Q122 484 126 498T133 524Q138 543 139 560T141 595V599Q141 604 137 606T133 614L134 616Q138 648 143 679T159
742Q151 765 151 794Q151 832 163 867Q157 883 157 898Q157 910 158 922T159 946Q169 951 175 960T191 975Q221 976 241 955T262 904Q262 881 249 860Q253 841 253 816Q253 779 248 742T245 667Q239 653 239 633T238 599Q236 585 232 571T227 542Q226 519 226 496T220
452Q218 444 215 439T209 426Q205 405 206 384T206 340Q205 333 203 326T200 311Q200 307 202 301Q293 309 383 328T564 361Q571 374 571 388Q571 396 568 404Q578 437 583 470T593 537T600 603T608 670L614 704Q617 721 622 737Q624 743 626 749T629 760Q629 765
624 767T618 772Q618 774 619 774T622 774Q627 783 628 793T629 813T632 832T640 850Q639 857 636 863T633 877Q632 878 633 879Q635 888 635 894T636 910Q636 922 647 929Q642 946 640 966T638 1005Q638 1031 650 1048T692 1066Q707 1066 720 1060T743 1043Q748
1020 748 1000Q748 986 747 974T745 947Q745 936 747 927T751 907Q742 893 738 876T733 841T731 805T729 771Q726 738 720 706T705 642Q708 631 708 622Q708 604 703 587T700 552Q693 534 691 516T688 477L686 438Q685 419 679 401Q681 396 686 396T690 387Q713
394 739 394T788 393Q803 393 818 393T848 397Q863 401 878 406T909 412Q930 412 941 397Q943 386 944 375T945 353Z" />
<glyph unicode="I" glyph-name="I" horiz-adv-x="383" d="M301 -50Q301 -66 290 -79T271 -104Q257 -111 245 -112T218 -119Q213 -120 207 -126Q199 -125 191 -120T175 -112Q164 -108 147 -107T121 -97Q107 -83 98 -60T83 -11T75 40T72 85Q72 117 76 149T88 211V216Q88
221 88 224T89 233Q89 236 89 239T85 244Q98 277 104 312T113 382T121 453T135 523Q134 529 134 536T133 549Q133 567 137 584T142 621Q143 627 142 633T141 647Q141 691 145 733T150 818Q150 841 147 862T143 906Q143 916 144 925T150 943Q172 958 202 958Q224
958 240 946Q239 944 239 940Q239 935 240 931T241 922V918Q241 916 240 914Q247 902 249 889T252 861Q252 848 251 836T250 810Q250 792 250 774T251 738Q251 690 247 644T240 549Q238 508 230 469T218 390Q217 382 217 375T218 358Q218 335 209 313T200 265Q200
253 204 244Q198 228 194 206T186 161T180 115T178 75Q178 51 184 27T204 -18Q214 -21 228 -21T256 -22T282 -27T300 -43Q301 -45 301 -47V-50Z" />
<glyph unicode="J" glyph-name="J" horiz-adv-x="816" d="M867 1007Q853 993 839 980T817 946Q805 944 792 941T767 938Q759 938 751 940T735 943Q728 943 728 936T724 925Q716 928 707 929T689 930Q668 930 648 924T607 909T567 891T526 877Q527 876 527 872Q527
865 523 861T519 849V846Q531 820 543 796T566 746Q572 733 576 721T585 695Q587 687 592 685T602 677Q600 671 600 666Q600 647 609 630T618 594Q618 589 616 581Q628 564 633 542T642 498T650 454T667 415Q660 403 658 390T656 362Q656 330 662 298T669 233Q669
211 664 197Q666 182 674 175Q670 168 671 159T667 142Q672 122 672 105Q672 80 666 56T659 5Q659 -2 660 -8T664 -23Q662 -29 657 -30T649 -37V-40Q649 -55 646 -66T637 -88L628 -109Q624 -120 621 -133Q595 -147 572 -160T526 -195Q522 -196 514 -196Q507 -196
500 -196T485 -195Q474 -195 462 -198Q446 -183 423 -177T380 -159Q373 -150 364 -143L346 -129Q337 -122 329 -115T315 -97H301Q301 -96 301 -95T302 -93Q302 -88 297 -87T294 -80Q282 -71 274 -59T258 -35T242 -11T222 10V12Q222 17 219 18T218 28Q202 49 191
72T171 119T152 168T129 214Q127 224 127 234V254Q127 283 132 309T151 361Q159 363 169 363T189 362Q198 362 206 363T222 372Q221 368 224 367T230 365Q235 365 239 366T249 368Q251 368 254 367T258 361Q264 363 269 366T280 372Q297 357 320 350T367 336T414
322T455 300Q460 290 460 279Q460 262 446 250T416 232Q393 248 365 255T311 275Q291 267 268 267T222 264Q217 260 218 250T215 235Q228 196 249 160T287 85Q289 79 294 77T304 71V68Q304 62 307 60T308 49Q320 47 325 36T337 17Q341 12 345 8T354 -1Q371 -20
391 -41T433 -73Q436 -75 438 -75T444 -76Q455 -82 468 -87T495 -93Q502 -93 509 -90T519 -80Q524 -71 526 -60T531 -38Q539 -9 546 20T559 78Q557 91 556 104T555 130Q555 153 556 176T558 222Q558 243 556 263T545 304Q547 308 550 310T553 317Q553 323 550 333T541
347Q548 357 548 372Q548 389 543 406T538 440Q538 451 541 462Q541 469 534 469T526 476Q526 478 526 480T527 484Q527 497 524 508T519 533Q510 543 506 558T498 588T489 618T473 641Q473 654 470 668T452 688Q446 711 436 731T409 767Q409 791 400 804T376 834Q353
832 330 825T284 818Q278 818 273 818T261 820Q256 817 255 811T254 799Q236 797 219 793T185 784T150 776T115 774Q108 760 95 756T68 749T39 744T17 731Q13 735 7 735Q-1 735 -8 731T-25 727Q-32 727 -36 731Q-43 726 -51 724T-65 713Q-82 716 -95 726T-116 750T-129
780T-133 813Q-127 824 -114 828T-93 842Q-86 839 -80 837T-65 834Q-55 834 -48 838T-33 842Q-28 842 -22 839Q-15 845 -5 846T14 849T32 854T43 867Q52 864 62 864Q74 864 86 867T108 875T126 882T137 886Q142 886 147 884T157 881Q167 881 176 887T194 899Q202
895 209 895Q223 895 237 903T269 911Q276 911 280 910Q303 921 335 930T394 939Q408 951 427 956T466 964T505 972T541 989Q546 987 553 987T563 982Q568 984 570 989T573 999Q574 1000 577 1000Q582 1000 581 996T585 992Q588 992 595 995T614 1003T638 1010T663
1014H667L672 1015Q677 1017 683 1018T694 1022T702 1024Q724 1031 747 1036T794 1041Q816 1041 835 1034T867 1007Z" />
<glyph unicode="K" glyph-name="K" horiz-adv-x="782" d="M1402 -224Q1402 -235 1397 -245Q1377 -256 1356 -260T1313 -265Q1303 -265 1292 -265T1271 -262Q1268 -261 1264 -258T1256 -255Q1246 -255 1237 -258T1218 -262Q1213 -262 1209 -259T1199 -255Q1192
-253 1185 -254T1170 -255Q1159 -255 1151 -252T1135 -241Q1110 -238 1086 -232T1038 -218T990 -204T941 -195Q935 -188 927 -185T915 -173Q910 -173 908 -174T901 -176Q884 -162 865 -152T825 -133T785 -115T748 -90H743Q735 -91 730 -87T716 -82Q711 -82 708
-83Q705 -75 699 -70T687 -61T674 -52T665 -40Q640 -31 617 -19T575 14Q555 16 542 26T518 53Q494 61 474 74T435 101T394 126T345 143Q344 150 339 153T328 159T315 164T306 172Q303 172 300 172T294 173Q291 173 288 173T281 172L282 175Q282 179 280 180T273
182T266 185T263 194H260Q249 194 240 198T220 204Q218 193 218 183V165Q218 120 228 71T259 -18Q280 -26 295 -39T324 -69Q325 -96 305 -114T257 -133Q242 -133 230 -126T209 -104Q203 -104 198 -106T186 -109Q183 -109 180 -108Q170 -91 161 -78T148 -43Q137
-38 135 -25T123 -4Q119 41 113 86T106 176Q106 186 107 196T109 218Q107 223 104 227T98 237Q78 232 57 228T13 223Q-1 223 -21 227T-52 240Q-60 245 -63 258T-67 282Q-67 299 -61 316T-45 347Q4 367 46 396T130 459Q131 469 133 479T136 500Q136 512 130 523Q136
529 136 538T141 556V562Q141 566 141 570T137 578Q144 617 148 655T152 735Q152 738 155 751T160 770Q164 793 165 815T170 861Q171 869 174 882T177 900Q177 907 175 909T170 918Q176 941 176 964T180 1011Q197 1018 207 1025T236 1032H238Q240 1020 247 1010T261
989T275 969T281 950Q281 933 278 913T273 876Q268 831 264 788T252 699Q255 685 255 673Q255 655 252 637T249 600Q249 591 250 581T256 563Q290 572 317 600Q321 604 325 610T335 621Q345 629 356 635T379 649Q405 666 429 684T479 721Q553 775 622 833T758 957Q761
974 770 984T786 1008Q805 1015 819 1029Q825 1027 831 1027T844 1026T857 1026T869 1022Q870 1007 872 995T884 972Q884 970 884 968T885 964Q885 953 879 946T872 929L820 877Q794 851 772 821Q764 820 758 816T747 808T735 799T722 793Q704 769 681 750T634
712T587 676T543 635Q522 625 503 612T471 578H466Q461 578 458 576T450 573Q396 526 338 485T227 394V369Q244 359 264 351T303 332T340 311T371 283Q373 284 376 284Q385 284 390 279T407 275Q411 259 425 252T453 240Q465 228 475 218T504 204Q506 200 507 195T511
186Q530 180 547 169T582 147T616 125T654 108Q657 98 665 94T679 82H697Q700 77 705 73T712 60Q720 58 730 55T748 46Q751 43 752 39T758 32Q764 27 776 25T798 17Q816 7 833 -5T869 -29L908 -50Q918 -55 926 -61T944 -72Q962 -80 982 -82T1020 -93Q1025 -96 1027
-100T1034 -108Q1042 -113 1059 -115T1087 -122Q1101 -128 1114 -133T1142 -147Q1172 -149 1201 -154T1260 -164T1318 -173T1378 -176Q1378 -178 1380 -178T1385 -179Q1392 -190 1397 -201T1402 -224Z" />
<glyph unicode="L" glyph-name="L" horiz-adv-x="885" d="M997 229Q997 209 991 197T976 168Q974 169 971 169Q965 169 960 166T950 161Q921 129 891 99T823 46Q813 40 803 35T782 24Q778 22 775 21T768 17Q761 13 754 4T737 -14T716 -30T692 -36Q684 -41 678
-49T664 -65Q621 -80 586 -104T512 -152Q489 -167 466 -176Q461 -178 455 -179T441 -182Q408 -190 375 -195T307 -200Q265 -200 226 -190Q226 -187 224 -186T220 -184T215 -182T215 -176Q193 -174 177 -165T155 -133Q152 -135 150 -138T143 -140Q129 -120 112 -103T87
-62Q85 -57 85 -53T83 -43Q78 -29 65 -29Q67 -25 67 -19Q67 -16 67 -13T66 -7Q66 -2 69 3Q59 26 55 48T51 95Q51 126 54 156T57 218Q63 230 66 246T79 272Q78 278 75 278T72 284Q72 302 79 323T86 366Q95 371 97 381T108 397V402Q108 417 111 432T118 461T124 490T126
519Q128 522 131 530T138 548T144 567T147 580Q147 586 145 591T143 602Q143 607 146 616T151 632Q155 649 158 667T165 703Q174 758 178 813T183 925Q197 933 212 940T245 947Q250 947 255 946T265 943Q270 923 281 911T301 882Q295 866 293 849L290 815Q289 798
286 782T276 750Q278 745 278 740V730Q278 716 276 703T270 677T265 650T265 624Q262 619 259 617T255 609L253 590Q251 579 250 569T246 547Q239 517 231 487T222 425V419Q213 405 208 385T205 347Q194 318 184 290T174 232Q174 227 174 222T176 211Q168 191 166
171T164 130Q164 116 165 98T170 60T179 22T190 -7Q213 -44 250 -65T330 -93Q347 -87 357 -86T387 -86Q403 -78 419 -74T453 -65Q458 -63 463 -61T473 -57Q478 -55 484 -48T495 -36Q516 -30 535 -20T572 2L609 24Q628 35 649 43Q657 46 658 51T664 65Q666 63 670
63Q682 63 687 70T699 86Q712 88 724 93T742 111Q767 116 786 129T823 157T859 187T900 211Q903 216 904 220T907 229Q924 231 934 238T957 254Q985 251 997 229Z" />
<glyph unicode="M" glyph-name="M" horiz-adv-x="1109" d="M1068 -259Q1068 -268 1062 -275T1046 -286T1028 -295T1011 -302Q1000 -296 989 -294T968 -284H961Q945 -284 936 -288Q922 -283 913 -274T896 -254T880 -233T860 -216Q842 -166 828 -115T807 -11Q809
-6 810 0T811 11Q811 15 810 19T803 25Q808 33 809 43T811 63Q811 83 807 96Q813 101 812 112T817 129Q812 146 812 162Q812 184 817 205T823 248Q823 253 823 258T821 268Q826 284 830 300T835 334Q835 346 831 354Q844 400 849 445T860 538Q859 540 858 541T857
544Q857 549 862 552T867 563Q855 551 848 535T834 503T820 472T800 444Q799 433 794 423T788 401Q787 401 786 401T783 402Q779 402 778 397T771 394Q748 349 721 306T649 237Q641 240 634 240Q621 240 609 233T592 225Q582 225 568 235T538 247Q522 258 512 269T480
283Q466 304 453 323T427 360T405 400T390 447Q391 449 391 451Q391 457 386 456T380 462V469Q380 477 378 483T376 498Q369 509 365 521T351 542V551Q351 557 351 562T348 572T340 578Q339 614 326 651T301 724Q293 698 289 672T285 618V601Q285 593 287 585Q284
580 279 578T272 570Q271 565 271 560T271 550Q269 526 265 504Q259 471 251 438T243 369Q243 367 243 364T244 358Q228 344 227 323T222 283Q217 255 210 228T198 171Q195 155 193 140T189 108Q188 99 183 93T175 79Q174 72 174 64T175 48Q175 36 173 26T161 7Q163
-19 170 -37T186 -79H211V-83Q211 -93 214 -101T229 -108Q228 -112 228 -118Q228 -127 231 -134T237 -151Q217 -184 194 -200T131 -216H115Q110 -200 103 -185T90 -155T79 -125T74 -92Q74 -88 75 -85T76 -77Q76 -72 72 -71T68 -61Q68 -54 68 -48T67 -35Q67 -2 72
30T79 96Q84 101 84 109T89 122V129Q89 147 93 165T102 200T111 235T115 271V287Q115 294 121 294T129 301Q131 315 131 328T134 356Q139 383 145 410T151 466V469Q151 472 156 481T161 500Q161 507 158 513Q159 512 162 512Q166 512 167 514T172 519Q169 523 169
527Q169 532 170 536T172 546Q172 553 165 556Q177 578 182 603T190 654T195 706T204 757Q202 763 202 770T201 783Q201 787 200 791T201 800Q201 802 202 805L204 811Q206 818 206 825T208 841Q210 864 210 888T211 936Q208 940 205 942T201 950Q209 964 218 976T244
996Q247 985 260 985Q266 985 275 988T287 996Q304 990 321 990T354 982Q357 967 362 951T376 922Q378 909 380 891T384 853T390 816T401 788Q402 770 407 752T418 718T428 687T433 664Q433 656 431 654T426 645Q430 634 437 627T452 609Q467 552 491 498T549 394Q558
393 563 389T581 387V380Q581 370 585 366Q594 360 606 360Q619 360 626 367T641 385T655 404T674 416V418Q674 426 677 431T681 444Q692 452 698 464T709 488T720 512T738 530Q752 573 772 610T814 685Q814 688 813 691T812 698Q812 699 814 707Q819 717 823 726T830
746Q840 777 848 807T874 864V889Q892 925 899 965T918 1043Q920 1054 925 1065T939 1082Q936 1088 936 1094Q936 1102 938 1108T943 1122Q940 1129 940 1140Q940 1154 948 1166T972 1183Q982 1180 989 1173T1002 1159T1016 1147T1036 1144Q1044 1129 1047 1113T1050
1079Q1050 1056 1046 1032T1043 982Q1035 966 1032 948T1025 910T1018 873T1004 839Q1001 794 998 751T987 665L978 608Q976 601 974 593T972 578Q972 572 973 566T979 556Q972 546 969 532T963 502L958 471Q956 456 950 444V433Q950 393 936 351V346Q936 341 936
338T935 329Q935 322 939 318Q931 292 924 265T914 208Q911 169 913 129T903 50Q909 32 911 11L915 -31Q917 -52 921 -71T939 -104Q940 -106 940 -110Q940 -118 936 -122Q938 -132 943 -139T953 -152T961 -167T965 -187Q973 -198 990 -204T1024 -216T1055 -231T1068
-259Z" />
<glyph unicode="N" glyph-name="N" horiz-adv-x="956" d="M885 925Q879 915 877 904T873 882H866Q858 882 852 884T838 889Q842 851 843 812T844 735Q844 687 843 640T842 544Q842 521 840 499T827 455Q829 438 830 423T831 390Q831 343 826 297T812 204Q809 186
807 168T799 132Q797 127 794 122T788 112Q776 86 762 61T727 14Q712 13 698 6T672 -1Q661 -1 654 10L644 6Q639 4 633 3Q599 17 569 37T518 89H514Q505 89 501 93Q496 98 491 105T481 119Q469 138 455 157T422 189Q414 219 398 240T365 287Q352 337 317 380Q322
385 322 387Q322 392 319 395T315 403Q315 407 317 409Q304 423 296 440T280 476T264 512T243 545Q232 538 230 528T227 507Q227 499 227 491T228 475Q228 455 224 436T217 397Q216 383 216 366T216 332T210 299T196 272Q190 215 181 158T164 44Q162 34 160 19T156
-11T152 -41T150 -65Q150 -75 155 -84T160 -103Q160 -110 156 -111T150 -119Q157 -141 157 -169Q157 -177 156 -185T153 -202Q151 -207 146 -211T141 -220Q141 -224 145 -226Q139 -232 130 -234T117 -245Q107 -237 97 -231T78 -216L75 -215Q68 -215 64 -219T52
-224Q50 -224 49 -224T45 -223L39 -197Q36 -184 31 -173Q39 -152 41 -126T47 -72T56 -21T78 22Q78 30 73 33T67 46Q67 48 68 53T71 64T74 75T77 84Q85 123 89 164T114 240Q113 244 113 252Q113 269 116 285T120 318Q120 332 117 344Q120 355 125 365T131 387Q131
397 124 401Q129 405 130 410T132 420T134 429T142 437Q141 447 141 456T140 475Q140 512 144 548T148 623Q148 660 142 695L153 717Q143 725 140 743T136 782T133 823T121 857V866Q121 882 119 897T117 927V936Q122 938 124 943T128 953H132Q144 953 156 955T180
957H193Q205 948 214 936T236 914V896Q245 884 250 870T260 841T272 812T289 788Q287 778 287 772Q287 759 289 746T293 721Q297 716 300 709T310 699Q315 660 330 625T353 552Q361 544 365 533T373 510T383 490T400 476Q406 452 415 428T443 387Q443 367 449 353T464
326T480 301T489 275Q503 254 521 236T559 202T598 168T633 132Q644 131 651 128T669 122Q676 127 680 134T689 150T697 165T709 179Q709 181 709 182T708 186Q708 197 711 203T720 218V244Q728 259 731 276T734 310Q734 324 733 338T732 368Q732 377 733 386T737
404Q739 406 744 410T749 416Q749 421 746 426T743 436Q743 443 749 447V453Q749 458 748 462T741 469Q746 475 748 483T750 501T751 520T750 537Q750 546 751 556T759 573Q756 585 755 596T754 620Q754 641 756 662T758 705Q758 713 757 721T756 738Q756 746 759
746T763 750Q763 757 762 764T759 778Q757 795 756 812T755 848Q755 859 755 870T759 893Q753 902 752 910T749 926L747 941Q746 949 741 957Q740 958 740 963Q740 971 744 975Q739 992 731 1008T720 1043Q709 1049 704 1062T698 1087Q698 1100 705 1112T727 1125Q733
1125 738 1122T749 1114T760 1106T772 1102Q776 1102 784 1104Q795 1089 806 1077T830 1051Q830 1034 836 1020T849 994T861 969T866 943Q868 936 874 933T885 925Z" />
<glyph unicode="O" glyph-name="O" horiz-adv-x="1102" d="M1046 559Q1046 502 1039 449T1017 340Q1004 330 1001 315T991 287Q985 276 975 264T953 238T929 210T909 182Q879 172 866 139Q850 133 833 126T809 100Q772 81 740 57T669 14Q664 9 658 7T645 1T633
-6T626 -18Q622 -18 621 -17T614 -14Q603 -20 604 -33Q600 -31 593 -31Q581 -31 570 -38T550 -54Q538 -60 523 -66T500 -86Q496 -82 488 -82Q479 -82 469 -87T454 -100Q440 -100 428 -104T402 -113T377 -122T350 -126Q342 -126 338 -122T328 -115Q323 -119 311
-124T292 -129Q281 -129 271 -126T249 -119L228 -112Q218 -109 206 -108Q197 -100 185 -92T160 -86Q155 -71 145 -60T122 -40Q119 -38 116 -37T110 -33Q105 -30 101 -21T92 -12Q91 -12 90 -13T87 -14Q85 -5 81 3T67 14Q59 40 56 66T48 118Q46 126 44 137T41 158Q41
173 45 194T53 231Q65 289 85 343T128 452T177 559T224 667Q228 667 229 669L232 674Q234 677 235 679T242 681V684Q241 690 244 694T246 707Q262 725 273 747T295 792T320 835T353 871V878Q352 883 353 888T360 896Q378 914 390 932T414 967T442 1000T482 1029Q493
1034 498 1044T511 1058Q515 1060 519 1060T528 1063Q545 1068 562 1075T598 1083Q622 1083 634 1070T654 1037T667 997T683 961Q713 959 744 955T798 929Q800 928 803 928Q808 928 808 932T813 936H816Q846 918 873 897T928 852Q933 848 938 845T948 836Q953 830
957 822T966 808Q1016 721 1033 621Q1035 610 1036 600T1038 581Q1038 572 1042 570T1046 559ZM969 508Q969 548 959 585Q964 587 965 591T967 601V606L955 628Q954 642 950 654T939 678T928 702T920 728Q904 740 892 755T869 788Q862 791 856 792T852 803Q834
808 820 817T791 839Q768 844 746 851T700 859Q684 859 669 853Q674 845 674 836T676 817Q708 809 715 778Q710 775 706 771T699 763T690 756T678 753Q664 753 657 758T633 760Q616 775 600 791T564 821Q561 831 555 839T542 854T530 870T524 890Q524 897 525 900Q519
902 516 902Q508 902 501 897T485 889Q477 865 462 847T431 812T402 777T382 731Q350 691 323 641T282 542Q259 516 246 487T231 423Q226 420 223 415L213 395Q211 390 206 387V382Q206 374 203 368T197 355T190 344T187 331Q187 323 191 315Q180 313 177 304T167
287Q163 255 159 222T155 157Q155 120 163 82Q172 73 179 62T193 41T210 24T234 14Q234 7 237 4T242 -4Q263 -11 286 -15T332 -20Q348 -20 364 -16T392 0Q443 2 493 24T586 72H607Q618 87 634 96T667 114Q670 116 675 118T683 122Q694 130 705 140T729 159Q749
174 770 188T810 218T847 252T877 294Q883 294 886 297T892 305T898 312T909 315Q909 324 912 330T920 342T929 353T938 366V394Q954 420 961 449T969 508Z" />
<glyph unicode="P" glyph-name="P" horiz-adv-x="926" d="M997 905Q997 870 984 838T965 771Q943 742 924 711T885 649T843 590T793 538Q794 537 794 534Q794 528 789 525T785 516Q760 490 736 465T692 409Q670 398 656 373Q650 373 647 371T639 366Q607 327 572
292T497 228Q482 217 467 208T438 189Q429 183 421 175T403 160Q374 135 346 119T280 96Q277 85 277 72V48Q277 36 276 24T269 0V-3Q269 -13 274 -22T279 -42Q279 -49 272 -54H298Q298 -68 306 -78T315 -93Q315 -110 312 -130T291 -158V-164Q291 -174 289 -183T280
-202Q274 -202 269 -202T258 -203Q216 -203 183 -183Q172 -157 169 -130T165 -74Q165 -19 173 35T186 143L201 172Q203 200 208 228T218 285T226 341T229 397Q237 414 240 433T244 470Q244 480 243 490T237 509Q243 513 245 519T251 530Q254 569 256 607T258 684Q258
705 257 725T254 767Q253 775 251 786T248 803Q248 811 249 819T250 837Q250 847 248 856T241 874Q193 860 155 837T78 784Q62 773 43 758T7 735Q4 733 0 733T-8 732Q-19 732 -28 733T-46 735Q-60 749 -79 757Q-82 769 -82 783Q-82 797 -80 810T-72 836Q-60 840
-47 845T-21 856T2 871T18 893Q24 890 29 890Q34 890 38 891T47 893Q65 904 83 916T122 936Q128 938 129 941T129 950Q152 957 177 966T219 993H237Q252 1004 269 1011T303 1024T338 1038T370 1058Q376 1060 380 1060Q385 1060 391 1058Q401 1063 408 1070L424
1086Q440 1086 453 1089T478 1097T501 1108T527 1122Q533 1120 536 1118T546 1115Q556 1122 567 1125T591 1131T614 1136T635 1147Q667 1147 699 1148T764 1150Q810 1150 857 1143T943 1108Q958 1072 986 1047Q988 1036 990 1027T997 1008Q990 993 990 975Q990
957 993 940T997 905ZM904 929Q899 938 898 949T897 972Q884 982 877 998T857 1022Q848 1027 832 1028T804 1032Q791 1036 787 1040T768 1044Q756 1044 744 1042T720 1039Q710 1039 701 1043T682 1047Q671 1047 662 1040T639 1036Q633 1031 633 1028T631 1024T626
1022H612Q591 1022 570 1016T531 996Q528 997 526 997T520 998Q503 998 488 989T453 979Q441 967 424 960T390 947T357 932T334 907Q333 899 339 897T345 887Q345 880 343 870T340 850Q340 827 345 805T355 760Q350 757 348 751T341 742Q355 700 355 656Q355 621
348 588T337 519V518Q337 512 341 510T345 503Q345 500 344 498Q333 430 323 362T305 225H313Q339 225 359 240T394 275H410Q482 338 548 405T675 549Q683 549 686 553T696 559Q717 588 740 616T790 671Q791 681 795 689T805 704T814 719T818 738Q823 740 829 742T840
750Q842 760 847 768T852 786Q852 790 850 796Q866 803 875 819T889 854T896 894T904 929Z" />
<glyph unicode="Q" glyph-name="Q" horiz-adv-x="1506" d="M1496 -226Q1477 -236 1459 -244T1420 -259Q1405 -248 1388 -249T1353 -245Q1345 -243 1339 -240T1326 -233Q1294 -219 1261 -204T1202 -162Q1184 -157 1167 -147T1138 -122H1119Q1110 -109 1097 -101T1071
-84T1045 -66T1023 -43Q1021 -44 1018 -44Q1013 -44 1010 -42T1001 -40Q995 -30 986 -23T973 -4Q967 -7 961 -7Q949 -7 941 1T923 14Q912 10 901 9T880 3Q872 0 868 -5T858 -14Q854 -16 849 -16T840 -18Q838 -19 837 -24T833 -29Q830 -29 829 -28T822 -26Q819 -26
815 -30T804 -38T788 -47T768 -50Q733 -77 692 -86Q672 -103 646 -113T603 -143H600Q587 -143 578 -147T560 -156T540 -165T513 -169Q509 -169 503 -175T492 -183Q476 -183 457 -186T427 -202Q419 -200 415 -200Q399 -200 385 -205T354 -210Q343 -210 331 -205Q317
-208 302 -216Q278 -214 256 -211T209 -209Q188 -200 164 -193T115 -178T70 -157T33 -126Q22 -112 17 -93T9 -54T2 -14T-10 25Q-8 43 -3 60T0 96Q11 126 23 155T44 215Q68 239 83 269T116 330Q130 342 140 354T155 387Q161 388 163 392T169 401T175 409T187 412Q198
436 211 460T248 498Q254 514 263 527T284 553T306 577T324 606Q350 627 371 654T420 702Q423 703 423 707T424 714Q426 716 428 716Q430 716 430 716T433 715Q436 715 438 717Q438 726 442 731T450 742T458 753T463 767Q488 785 509 806T551 849T596 890T649 922V929Q649
932 650 936T653 943Q689 945 711 972Q729 975 747 982T779 1004Q795 1004 810 1009T841 1019T871 1029T903 1034Q907 1034 910 1033T919 1032Q924 1032 928 1036T941 1040Q959 1040 977 1032T1023 1025Q1024 1005 1032 993T1054 975T1084 965T1116 957Q1117 934
1135 927T1174 918Q1184 898 1206 898Q1210 898 1214 898T1224 900Q1221 895 1221 892Q1221 885 1228 882T1242 878L1245 879Q1246 880 1247 880V876Q1247 870 1247 869T1252 864Q1261 857 1271 854T1291 846Q1300 836 1306 827T1327 817Q1338 794 1354 775T1389
738V734Q1389 716 1398 709T1417 688Q1419 674 1425 662T1446 642Q1445 637 1445 633V625Q1445 599 1449 574T1453 523Q1453 499 1448 478T1434 437T1417 396T1400 354Q1393 352 1389 347L1381 338Q1377 334 1372 331T1360 326Q1358 320 1355 316T1353 304Q1324
284 1299 261T1248 215Q1222 204 1199 190T1152 159L1106 128Q1083 113 1059 100Q1059 93 1057 90T1052 82Q1065 70 1076 58T1100 35T1127 18T1162 7Q1171 -11 1185 -22T1216 -42T1249 -62T1277 -86L1279 -87Q1283 -87 1285 -85T1291 -82Q1292 -82 1293 -82T1295
-83Q1314 -104 1335 -117T1384 -136Q1388 -146 1394 -151T1406 -158T1420 -163T1436 -169Q1444 -168 1447 -164T1457 -155Q1472 -170 1482 -187T1496 -226ZM1381 548Q1381 562 1378 575T1377 602Q1372 606 1370 613L1366 628Q1364 636 1362 642T1353 652Q1354 655
1354 662Q1354 671 1350 678T1340 692T1330 707T1327 724Q1306 748 1285 771T1234 810Q1232 815 1231 819T1227 828H1205Q1200 837 1190 841T1169 849T1149 857T1134 871H1125Q1097 871 1072 880T1019 896Q1014 891 1007 889T994 882Q982 893 966 897T935 901Q905
901 880 889Q875 891 875 894T870 897Q869 896 868 896Q852 892 838 884T822 857Q828 831 845 812T872 767Q885 763 892 754T905 734T913 709T919 685Q912 686 912 681T908 674Q877 686 850 702T794 735Q791 745 785 751T771 762T758 774T751 793H728Q726 807 717
815T696 831Q646 793 598 753T513 659H509Q502 659 496 656Q496 647 490 644T484 631Q467 625 457 613T437 587T418 561T391 542Q383 524 371 509T347 480T323 451T305 416Q304 416 303 416T301 417Q296 417 294 414T288 409Q277 385 263 365T233 324T203 282T180
237Q160 215 147 192T130 139Q122 132 119 120T112 96Q101 96 97 93Q100 75 102 55T108 14T119 -24T140 -57Q157 -63 175 -69T205 -90H213Q224 -90 234 -93T252 -104Q257 -105 262 -105H273Q298 -105 322 -102T372 -98Q378 -98 383 -98T395 -100Q401 -98 409 -93T424
-86Q436 -84 448 -83T474 -78Q497 -72 519 -62T563 -43H582Q614 -29 647 -16T713 11T777 41T837 79Q824 84 816 91L801 106Q794 114 785 120T761 129Q749 151 726 167T679 198T638 233T620 282Q620 293 622 302T628 323Q639 325 646 333T664 344Q672 337 686 338T711
337Q725 319 742 305T777 277T812 249T844 218Q859 216 871 209T890 186H894Q901 186 903 182T915 179Q914 177 914 175Q914 168 919 166T926 158H930Q944 158 950 150T969 139Q994 153 1017 169T1069 194Q1073 200 1077 204T1087 215H1091Q1099 214 1103 219T1112
229Q1131 234 1145 244T1172 266T1199 287T1234 301Q1238 307 1244 314T1257 329T1272 340T1288 344Q1299 364 1312 381T1337 417T1359 454T1374 498Q1373 502 1373 505T1372 511Q1372 519 1374 528T1381 545V548ZM1129 944Q1129 943 1128 942L1126 946Q1126 950
1128 950Q1129 948 1129 944Z" />
<glyph unicode="R" glyph-name="R" horiz-adv-x="880" d="M1207 -41Q1205 -61 1193 -72T1162 -84Q1152 -84 1143 -81Q1124 -96 1098 -104T1049 -120Q1021 -119 994 -115T938 -113Q928 -106 917 -104T895 -102T873 -98T852 -84H802Q795 -84 782 -78T752 -64T717
-51T682 -45H676Q665 -36 651 -32T621 -24T592 -16T568 -5Q558 2 545 9T518 16Q499 27 479 35T437 50L396 65Q376 73 356 84Q353 83 349 84T342 85Q336 85 335 81Q328 88 320 93T303 105Q299 104 296 104T287 103Q278 103 270 105T253 110Q244 90 241 65T237 14T233
-39T224 -88Q226 -96 226 -104V-121Q226 -138 231 -148Q229 -157 228 -165T224 -181Q225 -192 225 -201T226 -222V-239Q226 -248 224 -257Q214 -263 204 -268T184 -282Q177 -269 160 -267Q156 -272 155 -280T145 -289Q131 -278 122 -271T102 -250Q101 -248 101
-245Q101 -240 103 -236T105 -228Q105 -216 102 -207Q100 -194 99 -182T98 -157Q98 -140 100 -124T110 -91Q121 -62 125 -30T132 34T134 100T138 163Q131 179 122 188T112 219Q112 238 124 248T145 274Q143 280 148 282L160 387Q161 398 163 411T167 435Q169 458
169 480T171 524Q176 573 180 621T185 717Q185 740 184 763T177 809Q160 804 140 799T105 780H97Q71 780 49 770T3 751Q-7 746 -17 745T-38 740Q-43 739 -49 734T-60 727L-77 723Q-84 721 -83 714T-88 705Q-93 700 -102 700T-116 701H-120Q-145 683 -168 671T-224
654L-246 640Q-257 633 -271 633Q-282 633 -289 637Q-297 649 -301 664T-317 690Q-312 695 -311 703T-307 719Q-277 732 -247 744T-188 773Q-185 772 -179 772Q-169 772 -161 775T-145 782T-129 789T-110 791Q-76 810 -38 822T34 855Q39 855 42 853T50 851Q54 851
55 852Q61 860 71 863T91 869T111 876T124 891Q129 887 139 887Q156 887 170 894T202 901Q206 901 209 900T217 898Q225 898 225 903T231 912Q292 923 352 932T475 941Q484 947 495 947Q506 947 515 941Q532 943 549 944T583 945Q622 945 663 940T744 925T822 897T891
855Q894 846 899 837T912 823Q912 821 912 820T911 817Q911 806 917 796T924 772Q924 758 920 744T916 716Q905 700 898 687T888 654Q870 636 856 615T828 573T795 535T752 508Q751 498 744 486H723Q720 478 713 474L699 466Q692 462 688 456T683 439Q681 440 678
440Q668 440 655 430T633 414Q616 402 599 392T568 364Q528 347 492 325T414 289Q398 272 377 263T335 242V239Q335 231 341 224T355 211T372 203T389 203Q409 185 435 174T489 154T544 135T594 110H618Q641 90 672 80T733 62Q745 51 763 46T799 40H805Q809 40
812 41V39Q812 34 815 33T821 31T828 29T834 24H844Q865 24 884 16T924 7Q933 7 938 9Q944 7 947 1T955 -9Q962 -8 968 -8T980 -7Q1002 -7 1021 -12T1060 -27Q1092 -13 1123 -4T1189 5V3Q1189 -9 1195 -19T1207 -41ZM824 757Q824 769 820 776T808 788T794 799T780
812Q754 820 729 830T678 847Q665 850 652 852T626 855H604Q598 856 592 857T579 860Q565 862 552 863T524 864Q498 864 472 862L420 858Q409 857 397 857T375 855Q370 854 361 851T342 844T323 836T306 830Q307 823 307 816V803Q307 788 306 773T302 743Q301 737
299 731T296 719Q294 710 294 699V680Q292 657 291 635T288 590Q282 524 276 459T267 328Q300 335 330 349T389 379T447 412T508 439Q516 450 527 457T547 475Q557 475 562 479T575 486Q623 528 673 565T769 644Q773 658 782 671T801 699T817 727T824 757Z" />
<glyph unicode="S" glyph-name="S" horiz-adv-x="862" d="M821 37Q821 27 820 22Q815 20 812 17T802 14Q800 -1 792 -11T776 -29T759 -47T749 -72Q734 -80 720 -93T694 -112Q686 -116 677 -118T659 -125Q630 -138 600 -152T536 -166H529Q525 -170 519 -171T507
-174T495 -177T486 -183Q475 -179 462 -179H455Q438 -183 423 -185T391 -187Q361 -187 331 -183T271 -176Q252 -161 240 -139T228 -91Q228 -72 236 -56T257 -26H260Q269 -26 278 -22T297 -18Q307 -18 313 -26T323 -45T328 -67T329 -86Q340 -91 352 -92T378 -93Q391
-93 407 -92T439 -87T471 -78T498 -65Q553 -60 595 -40T684 7Q686 18 692 24T699 44Q699 46 699 48T698 53Q678 78 657 97T601 122Q597 131 588 135T569 144T550 152T537 168Q510 173 482 180T433 208Q417 209 403 214T374 225T345 235T314 240Q310 247 303 251T288
258T272 264T260 275Q256 274 254 271T247 268H243Q241 274 235 276T228 287Q210 288 196 294T169 307T143 322T114 333Q104 341 96 350T74 360Q71 360 63 358Q61 376 48 383T20 397Q10 423 -7 443T-44 480Q-42 486 -42 489Q-42 499 -47 506T-58 519Q-72 564 -72
607Q-72 667 -46 718T38 796Q39 804 43 810T49 824Q58 824 63 828T72 836T82 845T95 850Q133 883 176 903T264 946Q273 950 279 961H285Q295 961 300 965T317 968Q321 974 327 976T340 979T353 984T361 993H368Q385 993 401 998T433 1011H440Q460 1011 477 1018T515
1029Q523 1031 531 1030T547 1029Q552 1029 559 1030T569 1036H571Q577 1036 578 1032T584 1028Q591 1028 598 1030T612 1032Q642 1032 671 1026T730 1015Q732 1003 740 998T759 989V985Q759 977 763 972Q759 958 749 951T727 939Q732 935 733 928T734 915V903L729
904Q713 904 713 889Q700 897 685 899T654 901Q634 901 612 900T569 900Q561 890 549 886T525 881Q512 881 500 886T483 903Q478 905 474 905H465Q449 905 434 902T402 894T371 885T339 879Q333 871 323 868T307 857Q286 853 269 844T236 823L205 802Q190 792 171
785Q157 770 145 761T114 745Q102 741 101 733T92 717Q86 710 78 707T63 695Q58 688 56 679T50 660T43 643T31 628Q31 624 31 620T30 613Q30 599 33 585T38 556Q58 521 85 493T143 440T207 395T274 354Q286 355 296 352T317 347Q329 338 345 333L377 323Q393 318
408 312T433 294Q438 293 442 292T451 290Q457 290 458 294Q503 277 546 257T637 225Q656 209 679 197T725 173T769 146T806 111Q808 92 814 75T821 37Z" />
<glyph unicode="T" glyph-name="T" horiz-adv-x="658" d="M976 953Q968 948 959 947T941 945T923 940T911 929Q901 939 889 946T865 961Q855 958 845 953T825 948Q818 948 811 953Q803 947 793 944T771 937T750 929T736 914Q734 919 727 917T718 922Q686 911 653
903T587 886T522 866T460 839Q459 838 459 836Q459 826 462 817T467 800Q449 739 443 676T427 552V548Q427 543 431 541T435 532L434 530Q429 527 427 522T425 510Q425 506 427 498Q410 441 405 382T391 264L382 198Q380 192 379 187T377 175Q377 143 381 113T384
50Q393 36 393 23Q393 18 393 13T391 3Q404 -10 421 -15T453 -33V-37Q453 -47 450 -56T445 -76Q443 -84 441 -99T434 -119Q429 -126 420 -131T401 -137Q398 -137 393 -134T384 -129Q379 -129 371 -134T355 -139Q351 -139 348 -139T341 -136Q337 -126 330 -119T312
-104Q313 -90 307 -83T295 -65Q293 -51 292 -33T276 -7Q281 0 281 12Q281 17 280 23T273 32V34Q272 39 276 41T281 49V53Q274 85 274 120Q274 153 276 185T276 251Q282 256 285 267T291 291T293 316T295 337Q300 394 311 449T324 563Q329 571 330 584T331 611T333
640T341 664Q341 692 346 720T351 778Q351 792 348 807Q338 811 330 811Q319 811 308 807T291 793Q269 792 248 786T206 780H196Q192 780 187 781Q180 778 173 776T166 764Q135 761 106 751T47 730T-11 708T-72 695Q-83 690 -86 674Q-108 676 -123 685T-158 702Q-164
723 -164 742Q-164 767 -154 790T-122 824Q-117 823 -113 823T-104 822Q-88 822 -72 828T-39 834Q-34 834 -28 831Q-21 835 -11 837T9 842T27 850T37 864Q42 860 48 859T60 858Q73 858 87 863T109 879Q116 871 129 871Q143 871 156 878T183 886Q193 886 198 879Q209
888 224 893T254 902T283 911T305 925Q310 924 321 924Q338 924 353 928T385 937L406 939Q414 940 420 944T434 951T448 956T467 957Q491 970 518 977T573 989T628 1002T679 1025H682Q702 1025 721 1032T758 1051Q761 1050 764 1050H771Q799 1050 825 1058T881
1066Q898 1066 908 1062T926 1051T943 1038T966 1029Q975 1012 975 993T976 953Z" />
<glyph unicode="U" glyph-name="U" horiz-adv-x="889" d="M848 -119Q848 -131 841 -139T824 -153T803 -163T784 -173Q761 -168 736 -165T691 -151Q650 -106 634 -48T612 69Q610 86 610 102T608 136Q606 151 590 154Q602 156 607 166T613 190T614 217T615 240Q607
237 601 227T590 203T581 178T572 158Q530 86 475 27T360 -90Q343 -96 328 -105T300 -126Q262 -137 228 -137Q197 -137 167 -129T113 -100L76 -16Q73 -8 69 0T63 17Q61 26 61 36T62 55Q62 90 64 125T72 196Q74 210 78 225T84 254V265Q84 270 83 277T77 287Q101
345 101 408Q101 418 101 427T99 447Q106 454 108 463T110 483T110 504T116 523Q115 534 115 544T114 566Q114 633 124 698T135 831V873Q135 887 135 902T139 931T150 957T170 979Q172 979 173 979T177 980Q186 980 191 976T206 972Q224 946 234 917T245 856Q245
832 238 809T231 761Q231 751 232 741T233 721Q233 711 231 702T221 685Q223 665 224 645T225 604Q225 547 218 490T202 376T186 262T179 147V118Q179 104 181 89Q175 75 175 59Q175 37 185 16T209 -22Q214 -23 218 -23T228 -24Q254 -24 274 -13T313 14T350 47T389
75Q421 116 449 157T503 244Q505 268 515 292T537 341T558 388T568 432Q568 443 561 447Q571 473 576 501T584 557T592 612T604 667Q604 673 604 679T603 691Q603 737 612 781T621 872Q621 883 620 892T618 911Q618 919 623 921T629 932Q629 940 628 949T626 968Q626
999 632 1029T638 1090V1102Q638 1109 636 1115Q643 1126 655 1129T678 1133Q696 1133 708 1129Q727 1078 740 1025T761 916Q763 903 766 889T770 860Q770 857 769 853T766 845Q765 837 765 829T764 813Q764 789 767 765T770 716Q770 688 763 663T751 609Q747 580
748 552T744 495Q742 483 738 472T734 447Q734 438 735 429T737 410Q737 395 730 387Q732 379 733 373T737 358Q732 352 730 345T728 330Q728 320 729 312T730 294Q730 273 724 254T715 215Q714 201 714 188T715 160Q715 145 714 131T705 103Q707 97 710 91T719
82Q719 51 727 20T751 -40Q754 -46 760 -49T771 -55T779 -64T780 -79Q782 -80 786 -80Q794 -80 799 -76T813 -72H820Q829 -81 838 -93T848 -119Z" />
<glyph unicode="V" glyph-name="V" horiz-adv-x="777" d="M787 1004Q773 984 758 967T719 939Q707 870 700 800T684 660T665 521T636 383L637 371Q639 351 632 333T626 294Q612 259 602 217T590 136Q580 119 574 99T561 59T546 20T525 -14Q522 -37 514 -57T495
-98T475 -137T461 -179Q444 -205 427 -229T396 -281Q383 -287 374 -294T355 -308T335 -320T307 -325Q303 -325 300 -325T292 -324Q278 -313 264 -303T234 -284Q234 -278 233 -274T230 -266T229 -258T231 -248Q222 -242 211 -227T199 -200Q199 -190 206 -190Q204
-180 200 -171T195 -151Q195 -144 199 -136Q188 -110 179 -83T167 -26Q157 -13 152 4T143 41T138 78T133 113Q132 119 128 132T124 151Q124 157 126 160T131 168Q119 216 112 265T98 363T83 460T59 556V565Q59 597 34 616Q39 631 39 641Q39 654 36 666T28 690T23
714T24 738Q13 750 6 764T-12 788L-13 794Q-13 799 -11 803T-8 812Q-8 819 -11 824T-19 833T-27 841T-31 850Q-31 862 -23 869T-5 881T14 893T27 910Q35 908 43 908T59 903Q60 904 60 906Q60 909 51 911T38 918Q46 920 50 920Q70 920 88 910T124 889Q126 880 125
871T131 853Q130 848 130 844T131 836Q131 831 130 828T124 824Q131 812 133 795T138 760T145 725T160 695Q158 689 158 683T157 670Q157 638 165 607T173 544Q173 525 167 509Q167 500 173 495T181 480Q176 468 176 457Q176 434 185 414T194 371Q194 364 192 358T188
347Q197 338 197 324T206 301Q205 296 205 291T199 283Q204 276 204 265T213 251Q211 246 210 242T209 233Q209 222 212 213L218 195Q221 186 222 176T220 154Q224 148 226 140T231 124T237 109T249 100Q250 94 245 94T239 89Q239 81 245 70T256 53Q255 49 255
45V36Q255 22 259 8T266 -21T272 -50T270 -76Q278 -90 284 -106T303 -133Q303 -150 310 -165T328 -195Q338 -195 343 -189T351 -174T358 -159T371 -151Q372 -141 376 -135T385 -121T393 -106T396 -86L407 -83Q412 -56 422 -35T446 10V15Q446 25 449 32T450 50Q457
52 460 58T465 70T469 83T478 93V101Q477 110 479 118T478 136Q486 139 490 146T496 161T499 178T500 194Q507 203 510 215T515 241T520 266T532 287Q530 292 530 296V305Q530 324 536 339T547 373Q560 418 565 465T582 559Q583 564 586 575T592 597T597 618T600
631Q600 639 597 642T593 652Q599 661 601 675T604 704T605 734T604 760Q604 771 609 788T616 818Q621 852 622 885T626 953Q633 957 636 963T639 977Q639 988 637 998T634 1019Q634 1024 635 1029T640 1039Q639 1046 639 1053T633 1065Q638 1078 638 1091Q638
1103 636 1115T633 1140Q633 1165 654 1176H668Q678 1176 688 1177T709 1183Q722 1169 736 1153T760 1117T775 1078T776 1036Q780 1028 781 1020T787 1004ZM583 459Q579 460 578 462T571 466V455H579L583 459Z" />
<glyph unicode="W" glyph-name="W" horiz-adv-x="1192" d="M1151 871Q1149 866 1143 853T1137 836Q1137 828 1137 816T1144 800Q1133 777 1131 754T1128 706T1127 657T1119 609Q1123 603 1122 595T1126 581Q1121 573 1120 566T1119 550Q1119 534 1122 519Q1111
503 1111 484T1112 444Q1112 427 1108 411T1103 378Q1103 373 1104 369T1105 360Q1105 355 1102 354T1098 344Q1098 307 1093 273T1081 205T1064 137T1048 68Q1037 56 1032 41T1012 17Q999 -16 980 -43T937 -94T888 -140T839 -187Q829 -187 820 -187T800 -188Q778
-188 756 -186T714 -179Q710 -165 699 -161T678 -147Q668 -138 663 -127T642 -112Q637 -97 627 -77T606 -36T589 4T581 38Q581 43 582 47T585 57Q579 64 577 75T575 97T572 119T563 136Q551 128 544 116T532 90T521 62T509 36Q495 25 485 11T464 -17T441 -44T413
-65Q409 -83 399 -95T376 -118T353 -140T337 -169Q320 -177 299 -192T257 -224T214 -251T176 -263Q163 -263 152 -261T128 -255T104 -250T79 -248Q60 -228 50 -203T25 -155Q20 -125 15 -95T10 -34Q10 -17 14 -3T18 27Q18 32 17 36T14 46Q21 60 25 75T31 107T37
138T46 168Q48 180 39 186Q46 193 48 201T50 217T51 234T53 251Q54 255 58 263L67 280Q72 289 75 296T79 308Q79 315 75 323Q79 343 88 362T103 401Q108 421 109 436T118 473Q119 475 119 478Q119 482 116 483T111 487Q123 510 129 536T140 591T149 646T161 699Q158
719 156 740T154 782Q154 805 158 829T179 871Q187 871 196 872T214 873Q226 873 240 867Q247 835 258 804T269 738Q269 721 265 704L258 671Q255 655 253 639T254 606Q243 591 242 572T240 535Q230 521 225 507T218 479T213 449T208 419Q206 414 202 407T197 397Q197
390 201 383Q199 380 197 379T194 373Q191 362 190 350T185 326Q180 301 172 277T154 229Q154 209 153 197T149 176T143 156T136 129Q133 114 131 92T126 47T122 1T121 -38Q121 -67 126 -94T146 -147H163Q169 -147 176 -147T189 -151Q196 -149 196 -145V-137Q196
-134 201 -129L208 -130Q218 -130 226 -127T244 -119Q263 -93 288 -75T334 -33Q339 -25 337 -14Q349 -12 355 -5T368 10T380 25T398 36Q403 45 407 55T415 76T426 94T444 108Q461 146 473 186T509 261Q509 274 510 285T509 308Q534 342 541 379T548 457Q548 491
570 504T624 517H634Q640 517 645 516Q647 509 652 506T664 498V492Q664 478 661 467T657 442Q657 436 659 426Q669 397 674 373T680 317Q680 290 678 263T671 208Q677 197 677 185Q677 177 676 169T674 152Q674 135 679 119T691 86T703 54T707 22Q724 1 737 -21T771
-61Q779 -63 784 -63Q790 -63 794 -62T801 -59T809 -57T821 -57Q839 -44 854 -28T882 6T910 41T939 75Q968 147 986 219T1008 369Q1008 380 1013 380T1022 387V415Q1022 447 1025 479T1040 542Q1037 554 1037 566Q1037 592 1041 616T1046 666Q1046 679 1044 692T1033
717L1032 723Q1032 729 1036 733T1043 742Q1038 755 1039 769T1041 797Q1041 805 1039 814T1029 828Q1038 838 1042 854T1047 888T1049 923T1051 953Q1060 963 1071 970T1097 978Q1115 978 1123 966T1135 936T1141 900T1151 871Z" />
<glyph unicode="X" glyph-name="X" horiz-adv-x="753" d="M824 1102Q824 1094 823 1087T823 1072Q792 1053 780 1022Q764 1014 754 1001T736 973T718 945T694 922V900Q686 902 684 899T676 893Q656 855 635 818T583 750Q575 729 565 709T544 669T523 629T507 588Q487
567 473 542T447 491T420 440T385 394Q386 385 382 379T378 366Q378 343 400 315T454 258T516 205T564 168Q590 179 610 190T658 204Q672 197 680 186T689 159Q689 136 675 116T644 82Q628 79 612 77T580 75Q548 75 517 81T454 96Q437 118 417 134T371 161Q370
173 365 181T353 195T338 207T321 218Q311 215 303 210T285 201Q266 155 234 115Q236 97 228 88T206 68Q201 39 188 16T156 -29L157 -37Q157 -41 155 -44T153 -54Q138 -72 128 -95T110 -144T94 -194T77 -241Q81 -250 81 -262Q81 -273 79 -284T77 -306Q77 -315 80
-323T91 -338Q103 -327 122 -327Q133 -327 143 -330T163 -338Q167 -346 167 -352Q167 -359 164 -364T156 -375T147 -386T141 -398Q118 -400 96 -405T52 -420Q40 -418 31 -412T9 -402Q-4 -385 -11 -365T-31 -327Q-31 -304 -25 -282T-13 -237T-1 -193T2 -147Q12 -142
18 -132T27 -109T34 -84T41 -61Q52 -54 57 -44T74 -26Q74 -24 74 -23T73 -19Q72 -17 71 -17T70 -14Q70 -12 70 -11T70 -7L80 6Q94 24 101 39T117 75Q125 94 137 113T160 151Q186 198 210 244T263 337Q255 343 250 351T241 369T231 386T217 401Q196 456 170 508T118
613Q109 632 102 651T84 688Q81 693 77 692T70 695Q62 718 56 736L41 781Q45 801 59 810T92 819Q107 819 124 814Q133 804 141 793T160 771V745Q189 686 214 627T270 509Q281 507 288 500T301 485T313 470T332 462Q336 464 344 475T360 500T375 527T382 545V552Q448
643 493 745Q503 750 509 758T520 776T532 795T547 810Q552 831 563 849T586 885T609 921T626 961Q637 965 643 974T655 993T666 1012T683 1025Q690 1058 710 1079T762 1111L766 1122Q770 1120 780 1119T799 1116T816 1111T824 1102Z" />
<glyph unicode="Y" glyph-name="Y" horiz-adv-x="755" d="M693 847Q693 775 680 705T657 563Q652 556 647 552T636 542V532Q636 518 632 504L625 477Q622 464 620 451T622 423Q610 394 604 364T594 302T584 240T570 179L571 164Q573 132 567 100T560 36Q560 15
561 -5T563 -45Q563 -67 560 -86Q568 -96 572 -109L581 -135Q586 -148 592 -159T610 -176Q621 -171 630 -168T651 -164Q667 -164 679 -173Q681 -183 681 -194T682 -216Q672 -226 660 -233T636 -248Q636 -250 636 -252T637 -257Q637 -277 623 -287T591 -298Q586
-298 577 -296T563 -291Q536 -273 516 -242T484 -175T465 -102T458 -34V-12Q458 -1 460 10Q461 18 464 22T467 36Q467 89 473 142T488 248T503 355T513 462Q502 459 496 449T477 433Q454 400 424 375T367 318Q353 312 340 305T316 287Q282 284 259 261L250 262Q237
262 226 254Q218 254 211 257T195 260Q186 260 180 254Q151 261 131 276T95 310T62 348T23 383Q17 406 12 424T4 461T-2 498T-5 543Q-5 611 1 677T15 810Q31 837 38 868T52 932T67 995T94 1051H101Q112 1051 121 1050T140 1051Q154 1026 154 995Q154 975 150 955T140
916T129 876T123 836Q117 827 115 817T104 800L105 786Q107 764 100 744T90 702Q89 691 90 680T92 658Q92 632 91 607T89 556Q89 537 93 520T97 493Q97 486 94 480Q97 470 102 462L112 447Q117 440 121 432T126 412Q166 375 224 375Q257 375 288 394T349 440T406
495T460 542Q469 560 483 581T513 625T540 669T556 710Q558 719 558 729T560 750Q565 785 572 820T580 891Q580 898 580 904T578 918Q586 928 594 936T607 957Q620 955 631 956T654 958Q669 958 682 950Q693 897 693 847Z" />
<glyph unicode="Z" glyph-name="Z" horiz-adv-x="1172" d="M1234 87Q1234 41 1191 31Q1179 42 1156 43T1116 45Q1108 45 1104 40T1095 35Q1070 35 1046 37T996 39Q966 39 935 33T882 27Q876 27 873 30T865 35Q856 32 848 26T830 20Q826 20 822 23T815 28Q807 26
802 21T790 13Q783 17 776 17Q768 17 760 14T743 6Q735 5 727 5T710 6Q700 6 690 5T672 -1Q627 -1 584 -10T498 -33L431 -55Q426 -55 424 -53T418 -51H413Q401 -61 383 -67T343 -77T302 -85T266 -94Q256 -98 249 -104T230 -113Q225 -114 220 -113T210 -112Q199
-112 183 -118T147 -132T103 -146T56 -153Q40 -153 17 -150T-29 -139T-66 -117T-82 -80Q-82 -64 -76 -58T-70 -39Q-70 -36 -71 -33T-75 -27Q-55 -5 -39 19T-10 71Q5 83 18 98T44 129T71 158T104 181Q109 194 119 207Q133 212 143 221T164 240T184 260T209 274Q216
288 227 299T249 322L271 344Q282 355 291 368Q297 370 299 373T309 375V389Q322 395 331 404T350 423T369 442T391 458V476Q401 478 409 484T427 494Q426 513 436 521T460 541Q469 564 486 581L520 615Q533 643 549 667T578 720Q587 725 594 733T607 749T620 766T636
780L635 785Q635 792 640 797T645 807Q645 809 643 813H633Q610 813 582 808T535 792H529Q507 792 486 787T442 775T399 765T355 763Q342 757 328 754T302 741Q278 738 248 732T186 719T126 707T76 701Q62 701 50 707T28 723T14 746T8 772Q8 787 15 806Q22 813
30 817T44 830Q53 828 63 826T83 823Q93 823 101 827Q109 828 111 822T119 813Q141 817 162 825T206 833Q218 833 230 830Q285 846 340 858T449 892L462 891Q476 889 489 892T517 895Q532 907 552 912T593 921T634 929T672 945H677Q696 945 714 951T750 964T785
978T819 985Q846 985 865 964Q854 956 847 942Q856 928 856 913Q856 898 852 883T847 852Q819 842 803 821T765 780V763Q752 755 744 744T718 730Q713 709 704 691T672 666Q670 659 666 654T658 645T652 634T650 619Q630 601 613 581T580 539T547 498T510 461Q508
450 501 443T492 425Q472 407 453 390T414 353Q405 344 397 334T381 314Q378 312 374 311T367 310Q356 292 342 278T313 249T284 221T259 188Q238 175 220 159T185 126T151 90T116 56Q114 45 109 37T98 20T89 2T83 -20Q88 -22 92 -22H102Q122 -22 140 -14T176 2Q192
3 207 6T233 24Q238 22 241 22H248Q258 22 267 24T286 30T305 35T327 35Q342 44 358 48T392 57T426 66T456 81Q461 80 469 80Q480 80 492 83T516 91Q529 95 542 102Q548 102 550 100T555 98Q558 98 560 99Q573 103 584 107T608 116Q637 123 666 127T724 136Q737
138 749 142T775 149H780Q782 149 783 146T790 142Q800 142 812 145T835 150Q884 159 939 159Q959 159 978 156T1018 153Q1025 153 1029 156T1040 160V155Q1040 146 1044 142Q1052 147 1061 148T1080 149Q1104 149 1127 146T1174 142Q1188 142 1202 145Q1204 138
1211 137T1224 131Q1234 109 1234 87Z" />
<glyph unicode="[" glyph-name="bracketleft" horiz-adv-x="573" d="M594 -175Q594 -191 589 -200T579 -223Q553 -229 529 -243T478 -266Q475 -265 471 -265Q460 -265 450 -268T428 -269Q402 -284 370 -292T305 -310T243 -332T195 -370Q183 -366 174 -360T156
-347T136 -337T113 -331Q111 -289 105 -249T98 -169Q98 -142 101 -115Q98 -108 95 -102T87 -90Q89 -84 92 -79T101 -69Q96 -48 95 -26T92 19T87 62T73 103V112Q73 133 70 155T55 197Q63 246 68 295T73 394Q73 414 73 433T70 473Q69 474 69 476Q69 481 73 480T77
484Q77 490 75 497T73 513Q73 530 76 547T79 581Q79 589 77 597T70 613Q77 616 79 623T81 637Q81 644 81 650T80 664Q80 669 81 674T87 685Q87 688 85 688T80 689T75 690T73 695Q73 700 73 704T74 714Q74 733 69 751T51 785Q59 794 59 804T60 826V836Q60 841 62
846Q87 855 113 857T165 859T218 860T270 867Q279 864 288 864T306 860Q328 866 350 873T395 881Q400 881 404 880T414 879Q419 879 424 881T431 889Q438 887 443 885T457 882H460Q471 887 471 896Q474 897 474 893Q480 889 483 889Q487 889 491 892T503 896Q505
896 508 895T514 893Q530 885 537 871T544 840Q544 821 539 810Q495 804 453 794T367 781Q344 769 319 764T267 755T214 748T163 738Q165 727 166 716T168 693Q168 684 168 675T166 656Q171 648 179 641T188 624Q188 618 186 613T184 603Q184 595 191 592Q184 590
184 583T180 573Q181 559 181 544V514Q181 463 180 413T177 311Q177 297 175 283T172 255Q172 244 174 234T184 215Q180 208 180 199T179 180T178 163T173 151Q179 128 184 111T193 77T199 42T202 0Q202 -7 208 -27T223 -69T238 -111T245 -133Q245 -146 241 -152T236
-164Q236 -168 238 -176Q253 -184 275 -184Q294 -184 313 -180T350 -171T387 -160T424 -151Q441 -148 460 -148T496 -143Q504 -141 511 -135T524 -122Q530 -129 540 -129Q548 -129 555 -125T571 -119Q577 -132 579 -143T593 -166Q593 -168 593 -170T594 -175Z"
/>
<glyph unicode="\" glyph-name="backslash" horiz-adv-x="820" d="M805 18Q805 5 799 -4T792 -24Q792 -31 795 -35H791Q783 -35 781 -40T773 -49Q748 -35 719 -32Q716 -21 707 -17T694 -3Q664 7 638 23T586 57T536 92T482 123Q473 135 465 146T439 159Q427 178
412 193T380 224T348 255T322 291H318Q315 291 312 292L307 295Q286 324 263 350L217 402Q215 412 211 419T203 435Q193 441 187 451T176 473T164 493T145 507Q144 533 126 558T88 600Q83 627 70 652T48 703Q45 712 41 711T31 715Q24 741 20 767T15 822V834Q15
841 16 847Q22 855 28 858T40 861T54 861T70 861Q75 860 77 857T82 849T88 842T97 839Q99 839 101 839T105 840Q106 832 109 825T112 809Q112 805 110 797Q121 781 127 762L140 725Q147 707 156 690T181 660Q191 629 207 602T241 548T276 495T307 438Q318 430 332
424Q332 416 335 412T343 403T350 394T353 381Q372 370 386 355T411 321Q431 312 447 299T478 270T509 241T544 216Q548 201 558 193T581 177T604 161T623 140Q634 137 644 131T663 118T683 105T705 97Q713 82 725 73T752 55T780 38T805 18Z" />
<glyph unicode="]" glyph-name="bracketright" horiz-adv-x="631" d="M559 -264Q559 -295 545 -316H543Q539 -316 537 -314T530 -311H528Q528 -312 526 -312Q524 -321 522 -329T516 -345Q501 -350 488 -350Q477 -350 468 -346T452 -334Q444 -336 438 -340T430
-352Q421 -350 412 -350H393Q356 -350 321 -357T252 -373T182 -392T111 -406Q77 -389 58 -366T39 -303V-295Q49 -287 58 -278T79 -262Q101 -264 122 -266T165 -276Q178 -272 187 -269T206 -263T225 -260T251 -259Q266 -251 286 -249T327 -244T366 -238T397 -223Q406
-223 414 -225T430 -230V-227Q430 -219 427 -211T424 -195Q424 -190 426 -187T430 -179Q424 -166 421 -150T418 -118T417 -85T416 -53Q415 -43 413 -34T409 -14Q407 -11 407 -9T404 -4Q403 0 403 5T403 15Q403 36 402 61T383 103Q385 109 385 115V126Q385 157 376
186T366 247Q365 260 365 273V299Q365 360 367 420T376 542Q377 555 380 567T384 594Q384 612 381 630T377 668Q377 689 383 710L384 712Q384 716 380 716T376 721Q376 723 379 734T383 750Q378 761 376 772T369 796Q340 796 312 790T255 777T198 765T140 759H125Q119
759 111 760L99 756Q93 754 88 754Q74 754 61 760T36 771Q33 782 29 790T20 807T13 825T10 849V853Q16 859 23 861T36 866T49 871T60 879Q69 867 80 863T106 858Q129 858 151 862T197 864Q203 867 211 869L227 873Q235 875 242 877T254 886H262Q293 886 322 894T383
903Q397 912 404 925Q421 918 439 918Q447 918 455 919T469 925Q474 914 484 909T505 900Q507 878 513 862T538 831Q530 826 525 819T515 803L507 786Q503 778 498 771Q498 754 501 738T504 705Q504 697 503 689T495 674Q500 656 500 640Q500 629 498 618T487 599Q492
592 493 584T495 567Q495 559 495 551T494 534Q494 524 495 519Q487 491 485 463T482 407Q482 382 483 358T487 310Q490 287 490 265Q490 257 488 255T483 247Q490 211 497 173T505 97Q505 93 507 92T511 89T516 87T519 82Q521 75 520 67T519 51Q519 16 522 -19T534
-90Q531 -97 530 -104T529 -119Q529 -138 533 -156T544 -191T554 -227T559 -264Z" />
<glyph unicode="^" glyph-name="asciicircum" horiz-adv-x="843" d="M776 387V377Q768 377 765 372T761 361T759 347T758 334Q749 327 738 324T719 312Q693 319 665 331T610 341Q601 348 590 354L569 366Q559 372 549 378T531 395Q507 402 488 413T453 439T421
469T388 503Q382 503 379 505T367 506Q357 519 352 531Q350 530 347 530Q341 530 336 533T325 536L321 535Q314 529 310 522T302 506Q294 501 285 503Q251 447 204 405T109 319Q107 312 105 304T98 291Q95 291 92 291T87 290Q62 290 43 304T15 341Q19 351 22 362T30
384T42 402T62 413Q82 435 105 454T150 492T193 534T227 585Q241 591 249 602T264 626T279 651T299 671L315 669Q323 668 331 668Q340 668 349 671Q351 666 356 663T364 653Q382 650 395 643T419 625T441 606T467 589Q469 582 473 577T478 563Q479 564 482 564Q488
564 492 560T503 556Q503 547 508 543T517 531Q541 515 564 499T613 469Q622 464 631 462T650 456Q657 453 662 446T675 434Q689 434 702 438T729 445Q740 419 769 420Q771 412 773 404T776 387Z" />
<glyph unicode="_" glyph-name="underscore" horiz-adv-x="544" d="M544 -113Q534 -114 527 -118T511 -124Q512 -125 512 -127Q512 -132 509 -134T508 -145Q493 -154 477 -158T445 -165T412 -172T382 -184V-174Q377 -176 372 -178T359 -180Q349 -180 340 -177T321
-174Q313 -174 307 -177Q297 -176 292 -172T279 -163Q274 -172 264 -174T246 -177Q235 -177 226 -176T207 -174Q191 -178 177 -178T147 -179Q133 -179 121 -180T95 -188Q91 -178 78 -178Q72 -178 66 -178T53 -179Q43 -179 38 -174Q34 -175 34 -180T34 -188Q19 -182
2 -182Q-12 -182 -25 -185T-51 -188Q-58 -188 -65 -186T-77 -184Q-83 -184 -86 -186T-91 -192T-97 -197T-106 -200Q-117 -200 -121 -193T-134 -184Q-134 -165 -144 -150T-154 -116Q-154 -113 -154 -109T-153 -102Q-139 -83 -113 -75T-63 -66Q-52 -66 -47 -70T-34
-81Q36 -73 106 -70T247 -62Q270 -61 293 -59L339 -55Q342 -55 343 -53T344 -48T346 -43T352 -41Q363 -41 367 -47T379 -55Q386 -51 395 -50T414 -46T431 -42T446 -34Q454 -33 455 -37T461 -44Q466 -43 472 -42T483 -40H490Q494 -40 497 -41Q506 -61 520 -77T544
-113Z" />
<glyph unicode="`" glyph-name="grave" horiz-adv-x="467" d="M467 564Q466 549 460 541T453 521Q453 513 456 507Q449 504 449 496H445Q437 496 430 492T414 488Q388 488 370 501T331 524Q326 526 321 526H312Q305 526 302 528Q301 530 301 533T298 539Q297 540
289 542T272 548T253 554T241 560Q236 563 233 570T222 574Q223 577 223 580Q223 585 221 590T212 596Q210 596 208 595T202 594Q200 594 198 596Q190 606 181 616Q165 633 148 646T122 682Q104 691 91 704L65 730Q52 743 37 753T0 768V775Q0 788 4 800T8 824Q8
830 7 833Q21 838 25 850T29 876Q39 887 55 889T84 891H94Q99 891 104 890Q128 876 142 855T165 808Q179 797 189 782T219 761Q227 741 240 726T268 696T297 668T324 636Q341 629 361 623T400 608T437 590T467 564Z" />
<glyph unicode="a" glyph-name="a" horiz-adv-x="736" d="M757 73Q754 59 745 51T722 37T696 31T671 29Q666 29 662 29T652 30Q647 30 647 25T642 18Q637 20 632 21T622 22Q615 22 609 21T596 20Q588 20 585 22T579 26T574 32T566 37Q559 40 555 38T541 44Q529
54 521 68T504 99T487 131T466 159H458Q440 159 433 144Q428 147 423 151T412 159Q389 152 364 147T314 142H300Q294 142 287 144Q277 140 269 135T251 129Q245 129 237 133Q231 133 231 128T225 123H216Q202 123 189 122T161 121Q142 121 122 126Q117 123 111
123Q107 121 105 117T101 109T96 103T86 101Q84 89 76 82T68 61Q57 55 50 46T36 27T22 8T3 -6Q-2 -12 0 -25Q-11 -34 -27 -41T-57 -48Q-86 -48 -97 -17Q-97 -7 -96 4T-91 26T-82 45T-65 58Q-65 67 -71 70T-76 83Q-49 96 -29 117T7 161T41 209T79 252V273Q109 305
118 345Q129 347 132 355T136 374Q141 374 142 378T151 381Q160 405 171 425T193 465T212 508T225 557Q239 558 240 570T244 593Q259 607 266 626T280 665T293 706T315 743V746Q315 751 311 752T307 759Q308 760 308 761Q320 766 326 777T344 794Q365 777 381 774T423
768Q436 754 437 735T444 696Q452 664 461 634T476 571Q479 552 487 535T498 500Q500 486 498 469T502 438L509 422Q514 411 517 399T524 375Q532 345 538 311T559 248Q564 238 574 234T598 229T623 227T645 228H655Q661 228 667 226Q671 218 671 212Q671 200 663
193T655 177Q655 172 659 166Q655 167 647 167Q624 167 602 159Q610 142 623 131T652 109Q662 117 673 117Q685 117 695 112T718 106Q727 106 731 109Q739 100 744 91T757 73ZM444 233Q442 250 438 257T430 276Q426 290 425 306T420 337Q413 371 405 405T383 471Q387
477 387 482V485Q378 495 374 509T367 538T358 565T340 586Q337 580 337 572Q337 565 338 559T340 546Q330 541 326 531T311 514Q303 482 288 454T257 397T225 341T201 281Q188 272 184 258T179 230Q188 225 199 225T222 224T243 222T261 212Q274 216 289 217T315
226Q335 219 358 219Q370 219 381 221T404 226Q413 224 418 220T433 216Q438 220 439 224T444 233Z" />
<glyph unicode="b" glyph-name="b" horiz-adv-x="763" d="M763 705Q763 696 759 688L752 673Q749 666 746 658T744 639Q730 623 716 608T691 574Q680 575 675 569T666 553Q645 546 629 532T601 500Q548 478 502 446T418 371Q436 371 453 367T488 359T523 351T558
349Q571 337 587 329T620 314T652 298T680 276Q680 274 680 273T679 269Q679 261 683 254T687 238Q682 230 678 221T669 205T656 193T637 187Q632 170 621 161T597 144T570 129T548 109Q518 102 490 90T439 54Q424 52 409 50T378 47Q357 47 344 55T329 87Q332 94
338 99L351 109Q358 114 363 119T372 133Q374 133 377 133T383 132Q395 132 402 137T415 147T430 156T451 159Q458 172 472 178T501 190T529 203T548 226Q543 234 535 238T517 246L498 252Q489 255 482 259Q471 256 461 256Q440 256 420 260T379 264Q360 264 346
259Q341 260 336 262T325 266Q302 257 277 257H212Q204 257 196 255Q185 235 185 212Q185 195 190 180T200 147Q220 129 237 105T254 51Q254 44 253 40Q243 47 227 47Q213 47 201 43T174 37Q163 42 151 47T128 61Q120 78 112 93T92 123V127Q92 162 87 196T81 265Q81
281 82 297T92 328Q89 352 89 378Q89 430 95 482T101 588Q101 599 101 610T99 632H95Q82 632 70 629T46 621T21 614T-5 610Q-13 606 -18 602T-28 595T-39 590T-55 589Q-66 582 -72 579T-91 571Q-97 569 -101 565L-109 558Q-113 555 -118 552T-131 549Q-138 549
-141 550Q-147 555 -151 562T-160 575T-170 587T-184 596Q-180 601 -180 604T-181 613Q-181 616 -180 617Q-175 635 -162 645T-133 662T-101 674T-70 686Q-31 685 1 693T67 718Q73 715 79 715Q84 715 89 716L99 718Q111 728 125 731T153 736T180 740T203 751H207Q231
751 255 759T303 765Q323 776 340 779T379 782Q384 782 391 786T408 791Q410 791 411 791T415 790Q424 790 427 796T446 802Q453 802 459 802T471 801Q478 801 480 806T489 811Q492 807 499 807T510 808Q517 808 518 804Q534 814 553 817T591 820Q598 820 605 820T620
818Q629 824 641 824Q648 824 663 818T696 804T727 787T744 772Q746 770 746 763T749 751Q754 739 758 729T763 705ZM652 694Q652 696 652 698T651 703Q646 709 638 712T620 717T601 720T584 725Q563 718 538 718Q515 718 497 725Q488 716 474 711T445 704T414
701T386 700Q382 700 372 694T354 688Q348 688 343 693Q334 686 318 681T285 673T251 665T221 657Q209 631 208 601T207 541Q207 524 205 508T203 475Q203 467 204 459T210 442Q202 436 200 427T197 408Q197 397 199 388T203 371Q235 374 261 383T311 405T357 435T403
471Q413 473 419 477T436 481Q440 495 451 500T468 517Q480 520 488 525T505 536T522 547T544 553Q561 573 579 593T623 625Q627 635 632 642T641 657T649 673T652 694Z" />
<glyph unicode="c" glyph-name="c" horiz-adv-x="742" d="M763 180Q763 170 758 164T745 152T730 143T716 133Q712 129 711 124T705 116Q699 111 692 110T678 108T663 104T651 94Q604 89 559 81T465 73Q456 73 446 72T426 69Q405 67 385 66T343 65Q314 65 285
67T228 76Q221 81 212 84T194 90T176 97T164 109Q149 110 138 115T117 126T97 140T74 152Q64 166 54 179T28 202Q25 221 19 240T6 277T-5 315T-10 354Q-10 368 -6 388T4 428T20 467T38 496Q41 499 45 501T52 507Q61 517 71 523T92 539Q96 543 98 548T106 557Q109
559 114 558T124 560Q128 563 128 567T131 574Q132 575 137 575T143 574Q150 574 159 583T174 596Q181 600 188 601T203 607Q214 613 224 616T246 625Q252 627 257 632T267 639Q276 642 286 643T306 646T325 650T343 660H351Q369 660 386 665T421 670Q426 670 436
668Q444 673 454 673Q471 673 488 665T523 656H529Q533 656 537 657Q548 646 563 645T590 636Q597 630 601 622T609 605L615 587Q618 578 623 571Q618 535 594 514T532 492Q518 492 509 495T492 503T476 511T458 517Q469 537 472 560Q461 565 450 567T429 574Q402
567 377 565T329 543Q324 544 319 545T308 546Q302 546 284 538T246 518T207 496T181 481Q173 476 167 469T155 455T143 441T128 431Q126 420 121 412T110 395Q109 377 107 359T104 323V310Q104 304 106 299Q116 286 122 270T145 248Q146 244 145 243T142 238Q148
227 157 221T177 208T196 194T210 176Q225 176 238 171T264 160T288 149T312 144Q323 144 332 147Q358 139 384 136T438 132Q471 132 504 136T570 143Q582 145 593 145T615 147Q629 149 641 160T666 176Q677 169 692 169Q709 169 725 174T758 180H763Z" />
<glyph unicode="d" glyph-name="d" horiz-adv-x="716" d="M685 493Q685 483 678 480T671 468Q671 465 673 463T675 457V453Q663 395 641 352T588 273T521 205T440 138Q428 128 416 118T392 97L370 76Q369 75 359 72T347 67Q333 61 318 53T291 33Q271 33 257 27T226
11Q221 11 218 13T210 17T202 19T190 18Q178 38 164 52T126 69Q123 86 112 95T90 116Q88 122 87 130T83 145T75 157T61 162Q60 168 66 168T72 173Q72 179 70 185T68 198Q68 203 69 207T72 216Q69 243 69 271Q69 325 76 377T84 484Q84 508 82 532T72 579Q49 574
26 568T-17 550Q-28 557 -40 558T-65 564Q-72 578 -72 593Q-72 607 -67 620L-57 646Q-33 651 -10 661T38 679Q46 681 58 684T76 689Q83 692 85 700T93 715H110Q116 715 123 715T136 711Q172 720 208 722T282 730Q286 730 294 731L311 734Q320 736 327 737T338 739Q341
739 341 736H358Q401 736 442 725L524 703Q541 689 558 676T596 653Q601 637 611 628T635 607Q640 594 648 580T665 550T679 521T685 493ZM592 478Q581 501 571 526T546 571Q528 576 510 583T484 610Q482 609 477 609Q468 609 461 616T445 625Q437 626 424 628T395
631T366 633T343 634Q335 634 327 634T309 632Q301 632 299 630T291 625Q286 627 280 627H268Q247 627 227 621T186 603V599Q186 591 193 590T201 582Q196 582 193 582T190 574Q190 564 192 552T195 528Q195 519 193 507T183 488Q193 479 193 464Q193 454 189 443T179
424Q177 382 171 339T165 254Q165 233 167 213T176 173Q187 162 199 156T226 144V141Q226 138 222 135T218 127Q218 123 222 123Q264 135 301 152T370 198Q373 201 376 201Q378 201 381 200T388 198L387 202Q387 208 390 213T399 222L409 231Q414 236 417 241Q425
243 428 249T441 255Q443 266 452 271T463 288Q483 299 498 315T527 349T553 386T578 424V428Q578 444 583 454T592 478Z" />
<glyph unicode="e" glyph-name="e" horiz-adv-x="585" d="M646 636V632Q639 630 639 622Q628 617 616 615T593 607Q582 608 571 608T548 609Q518 609 488 607T428 607Q414 599 398 595T366 590Q354 590 345 593Q321 581 293 573T235 558T180 541T133 514Q131 500
130 487T129 460Q129 446 130 434T137 410Q142 408 148 407T160 406Q165 406 170 407T177 414Q192 416 207 416T237 415Q252 415 266 416T295 421Q311 425 326 426T357 428T388 431T421 442Q434 437 447 437T474 435Q481 430 485 424T490 410Q490 396 480 382T464
356H453Q429 356 407 350T362 335T317 320T270 313Q266 313 266 309T263 302Q258 303 248 303Q225 303 204 298T161 293Q155 293 149 293T137 295Q132 287 124 285T109 276Q106 267 106 254T105 228T102 202T94 183Q95 178 102 179T109 173Q109 164 107 154T105
134Q105 115 109 93T123 51T149 20T189 7Q205 7 219 13T242 33L247 34Q251 34 254 33T262 32Q268 32 277 39T298 57T322 76T345 90Q352 104 358 118T378 140V169Q388 180 399 189T417 212Q422 210 426 209T436 208Q441 208 446 209T457 212Q465 201 469 188T481
162Q472 144 460 119T434 69T405 22T374 -13Q371 -16 361 -20Q350 -28 341 -35T324 -53Q295 -62 269 -77T216 -106Q204 -103 190 -103Q178 -103 166 -104T140 -106Q136 -101 129 -100T123 -89Q89 -87 68 -71T33 -30T9 22T-10 76V79Q-10 84 -6 85T-2 91Q-2 93 -3
94Q-6 105 -8 113T-10 132Q-10 148 -8 163T-6 195Q-6 211 -10 223Q-6 228 -4 236T0 254T1 272T4 288Q0 299 -3 307T-6 328V335Q4 352 11 370T26 407V410Q26 439 24 468T22 526V545Q22 555 23 564Q31 568 35 575T47 586H80L86 596Q89 601 90 607Q101 610 111 615T131
627Q145 635 156 641T179 652T204 660T234 665Q242 665 244 668T252 675Q264 673 276 672T300 670Q324 670 345 679Q375 679 404 680T464 681Q490 681 516 679T567 672Q576 675 587 675Q599 675 611 673T636 672Q637 661 641 654T646 636Z" />
<glyph unicode="f" glyph-name="f" horiz-adv-x="767" d="M839 646Q839 640 834 636T822 628T809 619T800 607H791Q785 607 785 603H782Q773 603 770 608T757 614Q732 614 708 614T658 612Q589 612 523 608T391 579Q389 578 386 578Q381 578 381 582T375 586Q361
586 349 583T323 579Q307 565 287 556T245 539T203 521T168 496Q170 484 171 473T173 450Q173 407 165 366T157 282V267Q157 260 158 252Q160 247 165 246T175 241Q188 250 201 255T229 266T257 277T284 291H312Q323 299 338 303T358 321Q360 319 362 319H366Q378
319 390 324T416 334T442 345T469 350Q472 350 474 350T480 349Q486 359 497 364T520 374T544 382T566 392H570Q576 392 579 390T588 385Q616 403 645 403T707 407Q714 395 719 388T725 366Q725 359 724 356Q713 352 707 349L696 343Q691 341 684 340T664 338Q656
338 657 334T652 328Q638 323 624 320T596 312Q567 303 539 293T480 276Q455 256 426 244T366 223Q333 199 301 179T229 144Q224 139 217 135T208 123Q206 123 204 123T198 124Q184 124 177 118T158 109Q153 94 153 83Q153 69 158 58T170 37T186 18T201 -3Q199
-15 194 -22T181 -36T168 -50T158 -68Q140 -71 123 -71Q112 -71 101 -69T79 -60Q63 -38 57 -13T39 37L40 44Q40 66 33 82T10 116Q11 118 11 123Q11 136 3 147Q5 170 15 183T39 212V224Q39 267 46 308T54 392Q54 418 50 438Q47 439 42 439Q37 439 34 437T29 431T25
425T17 421Q0 424 -5 437T-10 466Q-10 475 -9 484T-7 503Q31 545 84 581T189 639Q192 640 196 640Q200 640 203 639T210 637Q213 637 215 639Q225 639 229 645T240 657Q247 652 252 652Q262 652 272 661T294 672Q340 680 384 685T473 708Q483 703 493 702T513 701Q524
701 537 703T559 715Q591 711 627 712T700 711T771 701T831 672Q833 665 836 659T839 646Z" />
<glyph unicode="g" glyph-name="g" horiz-adv-x="753" d="M1055 553Q1052 544 1044 541T1026 535T1010 529T1000 514L998 513Q994 513 993 515T990 520T988 525T983 528Q972 528 962 526T941 524Q926 524 914 528Q907 526 907 519T900 510Q895 508 888 508T874
507L842 499Q826 495 810 495Q801 495 797 496Q782 484 763 479T724 469T684 457T649 435Q641 437 635 437Q622 437 612 432T591 421Q586 419 581 419T570 417Q564 415 563 411T556 402Q556 366 563 331T570 259V255Q572 238 581 224T590 194Q590 189 588 183Q614
177 622 157T636 113T651 69T689 44Q691 34 692 24T693 3Q693 -11 690 -24T678 -49Q663 -50 656 -50T635 -56Q615 -44 600 -29T571 4T544 40T516 76Q464 63 410 59T301 54Q299 52 295 52T288 52T282 50T280 44Q273 48 265 49T249 51Q244 51 239 51T229 47Q191 54
156 66T83 87Q83 95 79 98T72 109Q30 135 2 172T-22 262L-29 276Q-29 292 -22 299Q-26 306 -36 313Q-27 327 -20 342T-10 374Q-9 379 -9 383T-7 392Q-5 398 -2 405T5 419Q21 453 40 484T90 539Q92 556 100 567T117 588T136 608T151 632Q171 649 191 665T226 703Q244
709 260 718T287 743Q311 745 334 752T384 759Q395 759 410 755T434 739Q435 737 435 734L436 729Q437 727 438 726T444 725Q444 703 439 681T413 646Q400 650 385 650Q365 650 349 643T317 626T285 607T251 593Q249 585 248 579T248 564Q243 564 241 565T233 567Q226
567 224 559T219 546Q200 538 188 524T165 493T142 461T112 438Q104 406 97 375T79 313Q82 301 82 288Q82 272 79 259Q84 251 89 240L101 217Q107 205 113 195T126 180Q137 172 160 166T201 144Q203 144 206 144T211 145Q223 145 237 139T255 133Q311 133 377 140T499
159Q501 169 501 176Q501 189 497 201T484 223Q484 238 484 253T485 283Q485 308 483 336T473 388H471Q458 388 448 382T426 375Q420 375 416 378Q404 364 387 357T351 345T314 333T280 316Q272 319 265 319Q258 319 252 318T237 316Q216 334 216 361Q216 375 220
388T233 414Q238 417 245 417T259 419T270 424T276 435Q279 432 281 432Q283 432 285 433T289 434Q291 434 292 432T294 428Q337 451 382 467T473 496T567 520T660 546Q667 552 675 555T689 564Q696 560 706 560Q720 560 736 565T764 579Q768 578 771 578H778Q798
578 815 584T850 600H855Q886 600 916 607T979 614Q1020 614 1051 593V581Q1051 573 1051 567T1055 553Z" />
<glyph unicode="h" glyph-name="h" horiz-adv-x="688" d="M637 467Q633 457 629 448T623 428Q616 423 608 421T590 416T574 410T562 399Q559 384 559 371Q559 354 565 342Q562 333 561 323T560 304Q560 271 568 239T577 173Q577 168 576 162T575 151Q575 130 591
123Q588 118 588 114Q588 106 590 100T591 87Q596 77 601 70T608 51Q601 37 591 26T577 -3Q573 -2 568 -2Q561 -2 557 -5T551 -12T545 -21T537 -28H534Q529 -29 526 -28T519 -26Q517 -26 511 -28Q503 -18 500 -5T497 22Q497 36 501 47Q490 56 488 74T482 104Q474
141 464 176T451 248Q450 262 450 275V327Q450 340 451 352Q451 361 452 369T454 387Q454 399 446 410Q375 407 312 385T185 331Q181 308 180 286T179 241V197Q179 172 181 155Q186 126 210 111T260 87Q259 72 254 62T242 43T225 26T207 8Q199 13 191 15T174 17T156
19T138 23L116 53Q105 68 92 83V92Q92 119 82 144T67 195Q70 204 71 213T72 232Q72 252 71 271T71 309H66Q57 309 47 305T28 295T10 285T-5 280Q-8 280 -11 281T-18 282Q-23 282 -30 278T-45 270T-63 261T-81 257Q-95 257 -109 269Q-111 277 -111 284T-110 299Q-110
307 -113 316Q-106 329 -95 336T-71 350T-45 363T-23 381H-17Q-3 381 8 387T35 392Q40 394 42 407L46 406Q68 406 85 421Q96 483 103 546T110 672Q110 678 106 684Q104 692 104 699V714Q104 725 105 737T110 761Q120 767 131 767Q144 767 156 764T181 758Q190 749
194 738T200 716T201 693T200 670Q200 648 205 627T210 586Q210 581 207 579T203 565Q203 554 205 542T207 518Q207 504 203 489T196 460Q256 465 319 475T439 507Q440 509 440 513Q440 519 439 525T438 538Q438 550 446 557Q441 585 439 613T437 669V726Q437 754
436 782Q444 787 453 787Q464 787 473 782T496 776Q505 776 511 779Q522 769 526 753T533 720T539 687T554 660L555 657Q555 653 551 651T547 643V639Q551 623 553 606T556 572T561 538T572 507Q577 508 585 508Q605 508 616 495T637 467Z" />
<glyph unicode="i" glyph-name="i" horiz-adv-x="311" d="M229 137Q224 129 217 123T204 109Q197 106 189 106T173 106T159 107T148 102Q140 104 136 109T122 116Q118 117 114 116Q99 133 87 152T63 188Q62 225 57 263Q56 272 54 281T51 298Q51 308 52 317T55
335Q59 364 64 392T73 449Q77 475 77 503T68 557L67 562Q69 570 71 575T75 588Q77 599 70 604Q73 612 80 614T88 626Q89 630 88 634Q96 637 104 639T121 640Q134 638 144 632T163 617Q179 569 176 516T166 408T157 303T173 207L175 206Q180 205 183 209T191 213Q195
211 196 211Q200 191 209 173T229 137Z" />
<glyph unicode="j" glyph-name="j" horiz-adv-x="679" d="M715 679Q710 670 710 661T708 643Q699 642 690 637T673 627T655 618T637 613Q629 613 622 618T610 629Q592 623 571 623T529 622T487 619T449 607Q452 598 453 589T457 570T464 553T477 539Q477 528 479
519T481 500Q498 462 517 423T543 342Q545 331 550 329T557 321V288Q568 276 572 262T579 232T582 200T586 169Q580 161 575 152T569 132Q569 123 571 119Q560 120 556 113T550 97Q534 86 518 76T488 51Q477 50 469 46T449 37Q438 35 426 35H404Q370 35 337 38T269
47Q255 58 237 62T202 69Q185 81 162 93T119 104Q113 120 100 126T73 133Q74 136 74 142Q74 149 70 152T61 158T50 163T40 169Q29 177 21 187T5 209T-12 230T-32 248Q-36 271 -41 293T-46 339Q-46 347 -41 354T-30 367T-18 380T-10 395Q5 388 25 388Q47 388 68
394T112 401Q119 401 125 400T137 398Q144 398 145 402T155 407Q169 407 179 397T198 378Q197 364 189 358T176 342Q160 341 149 337T126 327T103 317T73 313Q67 313 63 304T54 291Q62 283 68 274T81 257T97 242T119 233Q121 225 125 221T133 209Q156 201 175 191T213
171T252 154T298 144Q306 143 305 139T309 133Q313 133 318 133T328 134Q339 134 349 132T370 126Q382 130 400 133T436 143T466 160T478 189Q478 220 465 246T445 302Q443 312 442 324T439 348T432 369T417 385Q417 393 415 402T402 414Q399 436 391 456T373 497T355
538T345 582Q313 582 283 575T224 559T164 540T104 524Q86 532 73 543T37 557Q40 570 42 586T49 617T63 643T87 660Q103 657 123 657Q153 657 181 665T238 682H246Q275 682 309 689T370 708Q374 706 374 704T377 700Q388 710 406 712T443 714T481 717T510 729Q524
724 539 723T571 721Q591 721 610 722T650 725Q644 727 644 730Q644 732 646 736Q659 733 669 727T693 718Q690 713 690 707Q690 696 699 691T715 679Z" />
<glyph unicode="k" glyph-name="k" horiz-adv-x="640" d="M804 51Q804 43 797 38T781 28L763 19Q754 15 751 8Q740 11 730 12T709 13Q696 13 682 11T660 -3Q655 -1 651 -1H643Q628 -1 613 -3T582 -6Q574 -6 567 -5T553 1Q544 -2 534 -2Q521 -2 509 2T486 11T462
22T438 30L431 44Q415 47 402 53T375 68T350 83T324 94Q319 98 315 101T309 112Q296 115 285 120L264 131Q254 137 242 141T212 147Q206 156 195 164T173 172Q166 172 162 169V164Q162 152 169 140T187 123Q186 121 186 117Q186 111 188 105T198 97Q194 86 188
75T173 53T154 37T130 30Q126 28 125 24T123 16T121 7T116 1Q112 0 105 0Q95 0 88 3T73 11V15Q73 27 69 34T59 47T49 61T44 80Q41 78 38 77T33 73Q31 83 31 90Q31 110 37 128T44 166V181Q44 204 43 226T42 270Q42 289 43 307T47 345Q58 411 65 476T90 607Q89 612
88 617T86 627Q86 631 87 632Q91 652 105 665T141 679H144Q156 674 162 665T183 657Q183 655 183 653T182 649Q182 638 188 633T202 622Q197 612 196 599T193 573T190 548T180 528Q184 518 185 508T186 487Q186 476 185 465T184 441Q184 430 187 421Q209 421 212
442Q238 449 258 461T298 488T335 517T377 543V545Q377 550 380 551T381 560Q396 565 406 573T426 592L445 613Q455 624 467 632Q475 649 481 668T499 703Q518 703 540 700T579 686Q577 678 586 675Q575 633 553 600T496 543Q491 532 483 524T467 509T451 493T438
474Q426 472 418 467T402 456T386 444T367 435Q359 425 349 418T328 405T308 391T295 371H269Q258 352 241 340T205 316Q208 304 216 297T233 283T252 271T269 255Q311 239 350 219T424 169Q426 170 429 170Q437 170 442 166T456 162Q460 152 467 149T481 143T496
137T506 123Q521 122 533 117T556 101H568Q600 101 630 95T691 89Q707 89 722 91T751 101Q756 98 762 95T775 92Q780 92 790 94Q791 83 797 73T804 51Z" />
<glyph unicode="l" glyph-name="l" horiz-adv-x="538" d="M558 257Q558 246 550 241T542 226Q542 222 546 216Q532 216 527 207T517 187H504Q499 187 496 185T491 180T484 169Q465 165 448 157T414 139T380 120T345 104Q336 89 319 80H316Q311 79 308 81T299 84Q296
84 295 83Q265 63 228 63Q218 63 209 64T190 66Q187 66 186 64L184 60Q183 58 182 56T174 54Q163 54 152 57T129 58Q106 71 93 83T69 119Q64 130 56 140T43 162Q42 166 40 176T36 199T33 222T31 237Q31 249 32 260T36 284Q42 322 44 360T61 435Q59 446 59 456V478Q59
497 54 510Q62 523 62 539Q62 557 47 560V563Q47 584 33 596Q33 631 50 648T97 679Q101 685 100 689Q107 687 113 685T125 683Q135 683 143 686Q146 674 158 672T179 665V652Q179 621 194 593Q190 585 189 576T188 559Q188 547 189 535T190 512Q190 500 188 488T176
467Q175 454 175 438T173 404T167 371T155 345Q154 330 154 315T153 285Q153 263 155 233T169 183Q174 175 188 171T212 167Q223 167 234 170T251 183Q257 182 259 177T266 169Q323 193 380 215T492 266Q500 262 509 262Q519 262 529 264T549 266H556Q558 260 558
257Z" />
<glyph unicode="m" glyph-name="m" horiz-adv-x="995" d="M975 126Q970 110 972 94Q969 90 965 89T957 87T951 83T950 73Q917 71 887 59T828 33Q813 38 802 45T774 54Q757 88 743 125T728 201Q728 229 738 252Q738 282 743 311T754 368T766 426T771 485V507Q769
507 766 503T761 493T756 482T753 476Q736 463 727 444T706 407Q692 386 677 366T638 335V333Q638 328 635 326T634 316Q609 308 588 293T552 255Q532 250 515 242T479 223Q471 219 462 213T444 205Q436 202 423 201T395 199T366 198H344Q339 198 331 203T314 214T294
225T275 233Q267 259 253 279T222 321Q217 345 209 371T179 414Q184 421 184 430Q184 441 179 451T174 473Q174 481 175 485Q164 473 160 455T155 421Q155 409 158 399Q148 385 146 364T143 327Q143 307 146 288Q130 272 130 249Q130 236 136 226Q136 222 134 220T130
217T125 215T122 209Q122 204 122 198T123 186Q123 172 122 157T121 128Q121 99 126 87T140 68T159 56T179 33Q176 24 169 19T155 8T143 -5T139 -25H134Q121 -25 109 -29T84 -33Q81 -33 78 -33T72 -32L62 -26Q57 -23 52 -23Q47 -23 39 -25Q25 20 18 68T10 162Q10
167 12 172T20 176V195Q20 226 25 255T31 317Q31 326 31 335T29 352Q34 369 39 386T45 423Q45 431 42 442Q50 448 54 457T60 478T63 501T65 521Q75 541 76 564T86 607Q85 611 85 621Q85 641 91 661T118 693Q136 686 160 686Q183 686 204 693Q210 691 215 689T225
684T237 680T251 679Q261 650 268 620T280 559Q282 546 282 531T283 503Q284 495 288 489T296 474T302 456T304 431Q315 405 328 382T358 335Q367 332 374 328T383 313Q392 313 399 310L416 305Q454 317 486 337T555 371Q599 414 631 466T695 571V593Q701 596 705
600T717 607Q718 619 722 630T732 652T742 673T746 696Q746 703 745 708Q760 723 781 723Q801 723 821 714T860 696Q871 672 876 646T884 591T886 535V464Q885 456 881 453T874 442V432Q874 427 873 422Q873 401 868 378Q863 349 856 320T848 260Q848 249 849 238T853
216Q848 207 848 193Q848 177 853 164T867 137Q881 137 895 138T924 139Q938 139 950 137T975 126Z" />
<glyph unicode="n" glyph-name="n" horiz-adv-x="758" d="M671 657Q669 645 666 637T664 614Q654 613 649 608T640 595T633 581T624 567Q632 531 633 494T638 421Q643 375 653 331T664 240Q664 226 664 214T663 189Q663 181 663 173T664 156Q664 127 657 98T645
40Q633 29 625 16T607 -8T586 -27T556 -39Q553 -49 545 -54T530 -68H528Q503 -68 485 -61T452 -45T420 -26T383 -10Q355 13 332 40T280 90Q273 110 262 123T239 153Q234 160 232 166T225 180Q222 188 216 191T204 198Q196 229 181 255T146 305Q140 294 137 282T130
257T123 232T111 209V206Q111 201 115 200T119 194Q119 193 119 192T118 190Q113 186 111 180T100 173Q101 168 101 163V154Q101 125 95 96T88 37V24Q88 17 89 11Q91 5 95 -1T99 -12Q99 -19 93 -25Q100 -30 109 -36T125 -49T138 -65T143 -84Q143 -101 132 -108T106
-119T74 -126T46 -139H43Q31 -139 25 -132T7 -125Q-12 -94 -19 -56T-26 18Q-26 61 -19 104T-1 189T22 272T46 356L47 359Q47 364 45 366T42 372Q42 374 43 374Q46 384 49 393T55 413Q61 441 63 470T66 529T68 587T75 646Q83 654 90 663T108 679Q128 678 148 673T186
657Q198 614 202 571T218 485V482Q218 477 223 477T232 474Q230 471 230 467T229 459V442Q231 434 234 425T247 414Q252 382 262 355T285 303T313 254T344 202Q369 183 387 159T423 112T465 72T527 51Q532 55 534 62L539 76Q542 83 545 88T556 97Q558 125 560 154T573
209Q568 218 568 231Q568 241 569 250T571 268Q571 287 563 299Q563 306 564 313T570 328Q562 348 558 370T553 415Q553 428 556 442Q550 457 548 477L544 518Q542 539 538 557T523 586Q529 595 529 607Q529 627 523 645T517 683Q517 697 523 711Q545 710 566 707T609
703Q615 695 623 690T640 681T657 671T671 657Z" />
<glyph unicode="o" glyph-name="o" horiz-adv-x="702" d="M646 579Q640 570 639 559T638 539Q638 527 638 516T639 493V478Q637 471 633 464T627 450Q613 413 613 376V374Q608 362 604 352T595 333T589 313T588 288Q574 253 551 225T506 166Q485 158 468 145T434
116Q403 106 373 93T319 58Q300 56 281 52T244 40H232Q223 40 219 44Q206 37 192 35T164 32Q146 32 129 34T93 40Q83 54 65 61T33 76Q4 116 -9 153T-36 238Q-34 252 -29 265T-25 295Q-7 347 22 389T90 471Q90 477 92 481T93 493Q94 492 97 492Q105 492 107 496T108
507Q144 530 173 560T241 610Q244 619 251 625T262 639Q294 648 320 666T375 698Q391 707 405 710T437 718Q443 720 448 721T459 722Q477 722 494 716T529 709Q534 709 537 709T545 711Q562 690 588 679Q594 664 602 653T620 632T636 609T646 579ZM546 527Q546
532 545 536Q535 539 526 544T506 549Q499 549 492 546Q491 553 487 556T477 561T466 565T456 571Q453 579 450 587T437 600Q428 591 416 586T392 575T368 563T348 546H330Q324 535 313 530T294 514Q278 506 265 495T238 471T213 445T186 421Q173 393 158 373T129
331T106 286T96 225V215Q96 210 97 205Q110 191 118 175T147 152Q167 144 189 145T233 140Q281 149 325 169T410 219Q416 224 424 229T437 241Q442 246 445 252T453 263Q461 276 471 289T492 313Q497 335 505 355T521 396T534 437T540 481Q540 486 540 492T538
503Q546 514 546 527Z" />
<glyph unicode="p" glyph-name="p" horiz-adv-x="814" d="M794 556Q794 542 793 528T790 500Q783 490 777 483T768 464Q757 456 744 442T732 414H718Q706 396 690 383T656 358L621 335Q604 324 589 309Q581 308 576 306T563 305Q532 285 499 270T432 241T365 210T302
173Q299 174 294 174Q285 174 276 172T258 169Q254 169 248 170T238 173Q233 176 229 182T223 195T220 210T219 222Q219 228 220 235T223 248Q252 250 281 263T338 288Q345 291 349 295T359 303T370 310T385 313H388Q451 342 511 376T632 445Q635 454 641 463T654
480T665 498T670 516Q670 534 653 546H649Q637 546 628 549T611 556T593 562T570 564Q565 568 554 571T536 574Q500 574 465 570T395 564Q386 559 378 555T359 551Q354 551 350 551T341 553Q322 545 298 540T251 527T207 508T176 478Q176 473 178 470T180 461V457Q174
451 172 444T169 429T167 414T159 399Q163 384 163 366Q163 346 161 326T158 286Q158 267 162 252Q156 246 157 234T152 216Q152 208 156 205T162 195Q158 178 158 158Q158 129 164 99T180 40Q196 45 214 48T250 52Q253 52 256 52T262 51Q264 40 270 31T281 11Q276
4 273 0T269 -13Q255 -14 246 -20T226 -35H222Q205 -35 194 -41T169 -56Q157 -51 145 -51Q132 -51 119 -56Q103 -49 93 -35T76 -3T64 33T51 66V82Q51 105 48 126T44 171Q44 180 45 190T51 209Q49 218 49 226V245Q49 275 51 305T54 365Q54 387 51 410Q46 408 42
406T33 404Q28 404 24 405T15 407Q5 416 1 429T-10 453Q-10 472 -5 484T9 507T25 528T40 553H44Q60 553 76 563T112 574Q119 583 131 589T156 600T183 605T209 607Q213 614 221 616T237 621T253 626T266 636Q274 634 281 634Q294 634 306 637T330 645T354 654T381
658Q386 658 391 658T401 657Q409 657 410 663T417 672Q420 671 428 671Q448 671 467 674T506 678Q515 678 524 677T542 672Q544 675 546 677T549 682Q598 679 641 662T732 632Q738 623 746 616L763 602Q772 595 780 588T794 571V556Z" />
<glyph unicode="q" glyph-name="q" horiz-adv-x="943" d="M953 -221Q947 -228 937 -229T915 -231T893 -233T874 -240Q868 -238 866 -233T860 -225H849Q825 -225 805 -218T765 -200T727 -179T687 -161Q658 -126 634 -88T588 -9L544 69Q522 109 498 147L496 148Q488
148 485 145T479 142Q477 142 472 147Q425 127 376 114T275 93Q261 91 248 90T221 87Q213 85 207 81T190 76Q184 76 178 77T168 83Q148 77 127 77Q91 77 60 93T-1 130Q-6 139 -10 150T-26 166Q-29 192 -36 216T-51 266Q-25 336 35 380Q42 385 49 389T63 399Q67
400 67 404Q67 407 66 409T65 413Q65 415 68 417Q93 423 108 439T142 471Q156 470 167 477T189 493Q193 495 193 498V507Q203 509 207 509T214 511Q217 513 220 516L230 526Q252 548 283 564T349 594T417 620T479 646Q503 648 527 652T574 656Q594 656 612 650T641
625Q704 623 757 601T860 543Q864 529 871 517T885 493T896 467T901 439Q901 411 890 386T874 335Q832 300 785 274T691 219Q666 219 651 210T615 187Q617 179 622 172T627 156Q627 150 623 144Q640 130 648 107T663 63Q669 43 678 32T699 3Q713 -17 726 -37T753
-78Q760 -83 772 -92T798 -110T823 -128T842 -139Q848 -142 854 -142Q858 -142 861 -141L867 -139Q866 -140 866 -142Q866 -147 869 -147T874 -154Q907 -156 927 -172T953 -221ZM813 428Q812 449 804 463T788 496Q774 501 765 507T746 518T726 526T698 528Q683
537 666 537Q640 537 616 526T565 510Q566 509 566 506Q566 503 564 501T562 495V493Q570 486 580 484T598 474Q595 469 595 462Q595 456 599 452T608 445T617 438T623 428Q620 414 611 405T591 391T566 382T541 378Q536 383 532 387T526 399Q508 402 497 411T476
431T457 455T436 478Q440 485 440 495Q440 502 437 508T426 514Q421 514 419 510L415 503Q413 500 410 497T400 493H376Q353 477 328 464T279 437T231 407T189 371Q184 369 181 366T171 364Q165 350 150 338T119 314T91 286T78 252Q78 232 94 216T130 200Q134 200
142 202Q141 197 144 193T154 190Q165 187 175 186T198 185Q210 185 222 185T246 186Q263 186 283 183Q300 194 319 197T357 209L372 202Q386 217 409 222T451 233Q451 250 446 262T434 284T421 306T415 335Q413 334 409 334T404 338Q404 359 408 381T433 417Q439
414 446 414Q454 414 460 416T472 421Q475 412 483 414Q490 396 500 379T520 346T538 312T548 273H556Q566 273 573 275T586 282T598 289T612 295Q615 292 622 292Q628 292 634 296T648 300Q650 300 651 300T655 299Q670 312 690 321T730 339T767 360T796 388Q799
393 799 399T801 410T804 420T813 428Z" />
<glyph unicode="r" glyph-name="r" horiz-adv-x="995" d="M1292 174Q1290 159 1282 151T1262 136Q1257 137 1253 137T1243 138Q1212 139 1185 130T1128 117Q1118 115 1110 115T1092 114Q1060 109 1024 106T952 99T882 88T817 69Q814 71 811 73T804 76Q794 76 785
73T767 71Q757 65 746 63T723 59T700 54T679 43Q671 47 660 47T644 55Q621 44 596 41T544 39Q527 40 505 44T461 55T420 73T391 99Q384 109 381 121T367 139Q370 162 374 184T382 229Q402 246 420 265T454 305Q473 314 489 327T522 353T555 380T591 403Q594 410
599 414T611 423T622 433T629 447Q664 468 690 500T724 572Q707 586 686 590T641 597Q621 598 600 597T556 598Q534 591 511 589T464 586T419 580T375 563Q371 563 368 564T360 565Q328 566 300 553T245 526Q243 522 243 520Q243 514 245 509T248 497Q247 496 247
495T246 493Q245 488 244 484T240 475Q229 443 228 412Q227 386 228 361T228 310Q226 278 218 250Q223 226 227 200T237 147T251 97T274 50Q273 48 275 47T279 46H287Q292 46 291 42Q293 39 294 37T298 32Q300 29 298 24Q297 4 288 -13T277 -50Q265 -53 255 -53Q238
-52 225 -44T201 -23T180 1T158 23Q151 51 145 85T123 143Q127 152 127 165Q128 185 124 204T121 244Q121 255 123 266T127 288Q128 305 124 321T120 354Q121 362 123 369T131 383Q126 395 128 406Q129 423 132 438T136 468Q136 476 135 483T132 498L123 501Q117
501 112 498T102 491T95 485T89 482Q87 482 85 482T80 483Q78 483 73 479T60 471T45 462T34 456Q23 458 17 463T5 474T-7 484T-22 488Q-25 494 -25 501T-25 515V531Q-18 544 -7 552T18 567L44 579Q57 585 68 594H77Q95 593 108 601T134 619T158 641T186 658Q197
653 209 650T234 645Q247 645 261 649T283 664Q288 662 291 662T300 661Q315 660 330 665T359 679Q379 678 398 681T437 689T476 696T516 699Q549 698 581 705T646 710Q669 709 691 707T737 705Q750 699 760 695T787 692Q819 665 845 629V612Q844 589 837 567T821
524T800 482T779 441Q714 382 649 324T515 212Q513 202 510 194T505 177Q505 172 506 169Q513 167 518 162T522 147H531Q536 147 536 143L552 142Q590 140 628 144T704 153T781 162T857 168Q866 171 876 173T894 181H897Q904 181 907 177T918 172Q923 172 928 174T940
177Q954 181 969 182T1000 185Q1058 190 1115 191T1229 206Q1234 199 1243 197T1262 192T1280 186T1292 174Z" />
<glyph unicode="s" glyph-name="s" horiz-adv-x="588" d="M542 126Q542 109 534 97T527 66Q513 58 504 45T487 18Q421 -25 346 -51T190 -78Q185 -78 181 -74T173 -64T165 -55T154 -50Q147 -50 143 -53Q143 -51 143 -50T144 -46Q144 -34 141 -22T138 3Q138 17 143
26H155Q165 26 174 27T195 29Q206 29 215 23Q270 25 319 43T420 80Q428 91 429 104T437 130Q411 152 385 164T323 173Q302 186 279 188T231 194Q225 195 219 196T205 198Q200 198 196 196T193 188Q188 196 180 197T165 205Q133 207 109 216T56 238Q48 241 41 242T26
248Q8 257 -3 272T-20 305T-30 344T-36 381Q-27 397 -20 414T-7 450Q-1 453 5 455T18 460Q17 462 17 465Q17 470 20 475T22 485Q44 505 64 526T100 574Q115 579 124 589T142 609T162 628T190 639Q194 646 201 650T215 659T228 668T237 682Q253 682 266 688T293
701T319 714T349 720Q353 720 357 720T366 718Q373 711 375 702T379 681T380 659T384 639Q375 622 365 605T337 579H335Q328 578 322 582T308 586Q303 586 300 583L295 578Q293 576 290 574T280 574Q266 569 269 557Q250 555 237 546T213 525T191 504T165 493Q148
463 124 440T83 388Q86 380 87 371T90 352Q99 340 111 331T136 313H139Q159 313 176 306T212 298Q222 298 229 302Q255 296 280 292T332 286Q345 284 358 284T384 281Q395 278 406 274T428 264Q451 254 471 242T508 214T533 176T542 126Z" />
<glyph unicode="t" glyph-name="t" horiz-adv-x="721" d="M874 643Q870 630 861 619L844 598Q836 588 831 577T827 550Q825 550 822 550T817 551Q801 551 793 544T770 531Q768 537 765 542T756 550Q732 545 708 543T660 536Q649 534 638 531T615 524Q609 522 602
522T588 522Q564 521 536 519T486 503Q476 505 465 506T443 507Q419 507 391 503T340 485Q335 487 330 488T317 489Q315 489 314 489T311 488Q310 479 313 471T326 457Q322 446 322 433Q322 416 324 399T327 365Q327 346 322 335Q332 305 332 271Q332 259 331 248T329
223Q329 212 337 206T345 188Q345 184 343 180Q357 183 370 188T397 194Q405 194 412 191T426 183Q425 178 425 172T424 160Q424 149 424 140T426 119Q418 105 408 94T393 66Q378 66 367 60T345 46T325 32T303 25Q288 25 282 29T273 39T268 48T257 51Q255 64 249
75T237 98T224 120T214 144Q208 170 209 198T200 252Q202 266 203 280T204 309Q204 337 203 364T200 421Q193 430 192 441T189 464Q186 467 183 470T178 478Q170 480 166 480Q152 480 143 474T125 467Q117 467 110 469T96 471Q90 471 90 469T85 464Q82 462 71 460T47
457T21 454T4 453Q-12 453 -20 459T-41 474Q-39 480 -39 482Q-39 492 -45 498T-51 510Q-51 521 -43 527T-33 546Q-10 556 14 561T63 569T112 576T161 589Q168 588 174 588T188 587Q218 587 247 593T308 600Q316 600 324 599T340 596Q380 602 419 609T501 621Q521
623 540 624T580 629Q587 630 590 632T594 643Q603 639 614 639Q631 639 647 645T680 651Q684 651 687 651T693 650Q700 650 700 656T710 665Q717 667 730 668T757 670T784 674T803 682L810 693Q828 692 836 678T846 646Q850 642 857 642T871 643H874Z" />
<glyph unicode="u" glyph-name="u" horiz-adv-x="656" d="M636 162Q632 147 623 137T603 119T578 105T553 90H540Q498 90 476 110T441 161T424 227T410 291Q398 281 390 268T374 241T355 217T327 202Q324 195 321 188T316 173Q294 161 276 145T240 112T204 80T162
54Q161 55 158 55Q146 55 136 50T114 44Q106 44 100 47T87 54T73 60T58 61Q48 79 32 94T11 130Q9 139 9 148T6 168Q3 183 -2 198T-10 230Q-5 257 -1 289T10 354T28 416T58 467L57 474Q57 490 63 504T76 531T88 557T90 586Q102 592 115 596T142 600Q155 600 166
596Q164 588 173 586V583Q173 562 168 542T156 503T143 464T133 424Q129 423 128 420T125 414T122 409T116 407Q110 372 104 338T97 268Q97 247 101 225T116 183L120 184Q131 184 137 179T155 169Q163 171 170 174T176 187Q189 188 198 193T214 206L229 220Q237
227 248 230Q248 236 251 239L257 245Q260 248 261 251T262 262Q274 263 280 268T292 279T303 293T316 305Q323 320 335 345T360 397T382 448T392 486Q392 491 390 495T388 504V507Q396 517 402 529T416 552T433 572T456 586Q472 581 488 579T520 571Q521 546 525
513T539 457Q539 444 539 432T538 408Q538 388 539 367T546 328Q539 313 539 296Q539 273 546 253T556 209Q569 191 590 191Q595 191 598 192T606 195Q614 186 620 178T636 162Z" />
<glyph unicode="v" glyph-name="v" horiz-adv-x="547" d="M562 712Q562 695 561 680T554 647Q545 640 538 630L524 611Q517 602 509 594T489 580Q479 536 465 496T443 411Q431 389 424 363T410 311T393 260T368 217Q360 193 352 166T325 120Q326 118 326 114Q326
102 320 92T314 70Q298 58 284 42T254 10T222 -18T185 -34Q171 -24 159 -12T131 9Q123 54 122 97T114 184Q110 209 102 232T93 279Q93 284 93 289T95 300Q85 311 82 327T77 361T72 396T59 425Q63 429 63 436Q63 441 62 446T60 456Q60 460 63 465Q55 475 53 483T49
500T48 518T45 537Q43 544 39 547T34 553Q34 558 38 561Q24 581 15 603T-5 647Q-4 658 3 664T13 680H45Q89 594 112 502T154 315Q159 288 163 261T174 206Q176 200 180 193T184 179Q184 173 181 167Q187 163 190 156T196 142T201 127T207 113Q219 114 228 124T244
147T258 174T274 196Q275 207 278 217T282 239Q292 256 300 271T310 307Q315 311 316 313T325 314Q325 341 333 366T357 415Q359 438 366 461T384 508Q387 515 392 524T397 542Q397 546 396 549T394 557Q394 565 400 571T411 583Q411 606 416 629T436 669Q441 703
449 735T472 798H508Q508 817 525 817Q535 817 547 812Q555 790 558 763T562 712Z" />
<glyph unicode="w" glyph-name="w" horiz-adv-x="905" d="M854 639H850Q848 640 846 639T844 636Q846 628 846 625Q846 613 839 605T831 590Q831 587 834 585T840 582Q835 576 831 569T822 557Q824 522 830 489T837 421Q837 404 834 388T826 355T819 322T815 288Q802
262 787 239T765 187Q742 173 726 153T693 112Q658 100 629 80Q624 79 620 79H612Q574 79 547 93T501 129T467 181T441 241Q418 224 400 203T362 160Q356 152 348 142T331 126Q327 124 323 123T313 119Q285 103 269 76Q249 68 231 58T195 37Q176 36 158 35T121
33Q93 33 82 36T64 45T51 59T26 76Q21 89 17 102T4 126V140Q4 149 4 157T0 171T-10 180Q-10 217 -1 253T14 326Q19 347 20 369Q21 374 21 380T23 392Q25 398 30 402T37 414Q42 428 43 445T46 477Q51 507 57 537T73 596Q72 601 72 605V615Q72 653 77 689T83 763Q83
781 80 801Q85 811 91 819T109 833Q130 822 150 810T190 782V758Q190 729 189 697T183 631T171 567T152 510V478Q134 446 128 411T114 341Q112 330 106 315T100 289Q100 284 101 279T104 269Q96 251 96 231T90 190Q98 177 104 163T119 133L129 134Q138 134 148
133T167 131Q172 131 177 131T187 133Q193 144 203 150T223 162T243 173T259 190H273Q275 193 280 198T291 208T299 218T302 226Q314 231 322 239T339 257T355 276T374 291Q373 293 373 296Q373 305 378 310T381 328L384 327Q389 327 391 330T394 337T398 344T406
349V351Q406 369 413 385T421 419Q421 424 420 428T417 438Q426 448 428 461T431 488T433 516T441 543Q441 553 434 557L446 573Q452 581 460 586H462Q473 586 481 581T497 569T513 556T531 546V524Q541 520 546 510Q545 483 545 456T544 403Q544 363 546 324T556
245Q567 234 578 223T596 198H608Q643 198 662 220T689 273Q704 280 711 292T723 320T731 350T743 378Q744 390 744 402V427Q744 485 739 542T732 657Q728 665 726 676L723 698Q722 709 719 718T708 732Q711 742 711 756Q711 769 709 782T703 808Q711 815 716 822T733
829Q740 829 745 825T756 816T766 807T780 803Q782 803 784 803T790 804Q800 794 806 779T818 748T830 715T847 686Q847 683 847 681T846 675Q846 666 849 657T854 639Z" />
<glyph unicode="x" glyph-name="x" horiz-adv-x="627" d="M678 761Q676 740 664 730T635 708Q614 677 591 648T543 591T495 533T452 471Q429 454 411 434T376 392T343 348T308 305Q314 281 329 267T362 242T397 217T423 183Q453 178 481 168T541 157Q564 157 585
169Q594 167 603 162T624 157Q633 157 642 166Q644 163 646 159T653 154Q655 154 656 154T659 155V139Q659 130 660 122T664 104Q656 104 651 101L642 95Q638 92 632 90T616 90Q610 89 609 84T602 76Q595 71 584 71T563 66L529 64Q512 63 495 63Q485 63 471 63T443
65T416 69T394 76Q361 92 330 116T270 163L254 177Q246 184 237 190Q236 191 232 191Q227 191 224 189T216 187Q212 187 212 190Q181 160 154 126L100 58Q100 50 104 45L112 36Q116 32 119 27T123 14Q123 8 122 4Q113 1 101 0T77 -3T54 -10T40 -25Q33 -23 28 -21T14
-20Q6 -10 -2 0T-18 23Q-19 30 -19 36T-20 50Q-20 73 -13 91T3 130Q20 138 34 147T54 176Q67 177 75 184T91 201T107 217T129 226Q129 228 129 230T128 234Q128 241 131 244T138 250T147 255T155 262Q151 273 147 283T136 302Q126 317 115 331L93 359Q88 366 81
371T68 385Q63 393 62 403T57 421Q52 431 45 439T37 461Q37 468 40 474Q29 485 24 500T19 531Q19 545 23 559T36 586H45Q50 586 50 589Q56 585 63 582T72 571Q81 570 90 568L108 564Q124 540 137 515T163 465T192 416T226 371Q241 377 252 389T272 414T293 439T319
457Q318 458 318 460Q318 465 321 467T323 478Q343 492 360 508T384 550H398Q422 582 446 614T502 672V686Q518 696 530 709T553 737T574 767T599 794Q609 789 620 787T641 782T661 775T678 761Z" />
<glyph unicode="y" glyph-name="y" horiz-adv-x="547" d="M542 688Q542 679 535 673T527 664Q527 658 529 656T531 650V645Q521 635 516 624T508 600T503 574T496 549Q491 537 483 529T470 509Q462 491 458 472T441 437V432Q440 425 445 420Q426 395 415 361T397
289T385 214T373 146Q378 124 388 105T409 64Q429 59 447 50T474 21Q472 1 461 -10T434 -33Q423 -29 416 -27T395 -26Q376 -11 360 -2T330 29Q328 32 324 32H315Q310 44 303 57T289 85T277 114T272 141Q272 192 281 242T291 345V355Q271 350 252 341T212 327Q205
325 204 320T198 312Q188 311 179 311T162 310Q145 310 127 311T90 318T57 332T29 355Q27 354 24 353T18 352Q15 352 12 353T7 355Q-1 366 -6 379L-16 405Q-21 418 -27 430T-43 452Q-46 470 -46 487Q-46 505 -44 522T-36 556Q-40 568 -41 581T-43 607Q-43 622 -40
638T-30 667T-11 690T20 699Q40 699 57 689T90 667Q92 655 93 644T94 619Q94 595 92 571T89 521Q89 495 95 473T119 430H123Q131 431 137 427T151 423Q158 423 162 428T172 434Q178 434 181 432T186 430Q197 430 211 438T229 456Q233 453 239 453Q247 453 254 458T272
463Q278 463 277 470T280 480Q292 485 306 494T330 506Q335 519 342 530T358 552Q361 575 370 596T389 638T408 680T420 724Q431 735 437 748T449 774Q459 777 474 777T500 778H517Q520 772 525 767L535 757Q526 743 526 729Q526 718 531 708T542 688Z" />
<glyph unicode="z" glyph-name="z" horiz-adv-x="805" d="M1153 249Q1149 232 1138 223T1111 208T1080 201T1050 198Q1036 191 1025 183T1002 166Q914 155 828 139T654 112Q642 104 623 102T584 98T543 93T508 80Q443 77 382 58Q371 61 360 63T337 65Q329 65 319
64T303 54Q279 73 246 68Q219 80 199 98T167 144Q168 160 167 168T153 187Q153 194 157 198T163 209Q159 216 159 226Q159 243 165 260T167 295Q181 318 199 338T235 378T272 418T307 460Q326 466 341 478T371 505T401 532T436 553Q438 559 442 563T452 572T461
581T468 593H459Q414 593 369 588T280 575T191 559T102 546Q85 537 65 530T26 516T-12 500T-45 478Q-48 477 -54 477Q-65 477 -73 481T-91 488Q-93 504 -97 518T-102 549Q-102 562 -98 571Q-84 571 -79 580T-62 596Q-59 593 -56 593Q-51 593 -47 597T-37 605T-23
612T-2 614Q28 630 54 634T113 643Q121 645 124 648T131 657L152 656Q195 654 238 661T323 678T409 693T497 696Q508 701 519 702T543 703Q559 703 578 700T613 689T640 668T651 634Q651 623 646 614T634 597T619 582T604 567Q593 555 584 542T561 517Q554 518
551 514T540 510Q527 504 525 488Q498 477 473 462T432 421Q411 408 393 392T357 357T324 321T289 285Q287 270 282 257T271 230Q271 219 278 211T285 190Q310 185 334 183T385 180Q410 180 435 183T482 198Q497 194 513 194Q535 194 555 198T597 202Q622 211 648
214T701 220T753 227T805 242Q819 239 831 241T857 243Q867 243 881 237Q897 245 914 251T950 257Q957 257 964 256T977 252Q979 253 987 256T1004 262T1021 267T1031 270Q1039 270 1039 266T1043 261Q1060 261 1076 267T1109 274Q1116 274 1122 273T1136 270Q1140
264 1143 258T1153 249Z" />
<glyph unicode="{" glyph-name="braceleft" horiz-adv-x="530" d="M653 -307Q653 -317 648 -321T636 -328T621 -330H606Q596 -330 589 -333T577 -345Q571 -339 565 -339Q556 -339 548 -343T529 -348Q524 -348 522 -347T515 -345Q512 -345 507 -349T498 -355Q491
-357 485 -357H473Q465 -357 458 -358T443 -367L434 -366Q410 -366 387 -370T340 -375Q334 -375 328 -375T315 -374Q310 -374 306 -375T300 -381Q281 -373 261 -371L221 -367Q209 -355 200 -344T171 -331Q163 -312 156 -294T139 -259Q140 -254 140 -250V-242Q140
-213 128 -187Q136 -160 146 -131T157 -72Q167 -60 173 -44T184 -9L193 27Q198 45 204 60Q199 74 188 84T164 100T135 111T106 118Q96 120 96 125T92 136L86 135Q73 135 66 139T52 151T40 164T24 175Q24 182 24 188T25 201Q25 206 25 210T20 218Q36 260 67 285T139
326Q148 340 159 350T178 376Q169 420 161 464T153 554Q153 558 157 558T164 559Q164 578 169 603T189 642Q188 643 188 647Q188 652 189 657T193 667Q199 671 202 678T208 692T214 706T225 717Q223 721 223 729Q223 737 224 744T225 760Q242 765 249 780T261 810Q274
822 283 838T301 869T322 898T354 918Q356 930 363 938T376 957Q397 969 420 984T470 999Q478 999 486 996Q495 999 503 999Q520 999 537 993T572 986Q577 976 578 964T584 943Q583 937 579 933T570 926T561 920T555 910Q514 905 485 889T434 849T392 797T350 738L346
724Q345 718 347 710Q324 695 311 671T288 617T273 559T261 505Q268 485 278 465T311 440Q316 414 319 387T329 333Q297 308 265 283T204 229Q215 215 233 209T268 197Q274 201 282 204T293 215Q309 209 317 199T331 175T344 150T365 129V123Q365 97 358 72T333
29Q333 27 333 25T334 19Q334 12 331 7T324 -3T317 -16T313 -32Q313 -40 314 -43Q305 -52 300 -64T290 -90T280 -116T268 -140V-154Q268 -173 265 -192T257 -230Q259 -239 265 -244T279 -253T294 -263T304 -276Q315 -278 327 -279T352 -280Q391 -280 430 -274T508
-267Q538 -267 565 -273Q579 -267 592 -265T620 -259Q628 -271 640 -281T653 -307Z" />
<glyph unicode="|" glyph-name="bar" horiz-adv-x="305" d="M105 -205Q93 -204 77 -201T52 -189Q37 -172 34 -147T31 -102Q32 -77 35 -54T39 -6Q40 9 39 24T39 54Q39 89 49 120Q47 127 49 137T47 152Q60 185 63 220T68 290T72 361T85 431Q84 437 84 443V457Q85
474 89 491T95 528Q96 534 96 540T95 555Q97 598 102 640T109 725Q110 748 107 769T104 813Q105 823 106 832T113 850Q124 858 137 861T164 864Q175 863 184 861T202 850V844Q201 839 202 835T203 826Q203 823 201 819Q209 806 211 793T212 765Q212 752 211 740T209
714Q208 696 208 678V642Q206 594 200 548T189 453Q186 411 176 371T163 289Q163 281 163 260T162 217T162 175T165 149Q159 132 155 111T149 66T146 21T144 -20Q143 -37 137 -53T131 -88Q131 -99 134 -106T142 -121T149 -137T153 -159Q152 -180 139 -193T105 -205Z"
/>
<glyph unicode="}" glyph-name="braceright" horiz-adv-x="612" d="M530 361Q515 319 483 295T412 254Q402 241 391 230T372 204Q381 159 389 116T397 27Q397 22 393 21T386 22Q387 2 381 -22T361 -61V-68Q361 -73 360 -77T357 -86Q351 -91 348 -97T342 -111T336
-125T326 -136Q328 -144 328 -148Q328 -156 327 -163T326 -179Q309 -185 302 -200T290 -230Q276 -242 267 -258T249 -289T229 -318T197 -338Q194 -349 187 -358T175 -377Q147 -393 126 -405T71 -420Q61 -422 56 -424Q36 -423 18 -415T-23 -406Q-27 -395 -27 -384T-33
-362Q-32 -356 -28 -353T-19 -347T-10 -341T-4 -331Q36 -325 65 -309T117 -269T159 -217T200 -158Q202 -150 203 -144T204 -129Q226 -114 239 -90T262 -37T277 21T290 75Q282 95 273 114T240 139Q233 166 231 193T221 247Q253 272 285 296T347 351Q336 366 318
372T283 383L267 377Q259 374 257 366Q241 372 233 382T219 406T206 431T185 452V457Q185 483 192 507T218 552Q217 555 217 561Q217 568 220 573L227 584Q231 590 234 596T238 612Q238 616 236 624Q245 633 250 645T260 670T270 697T283 721Q283 724 283 727T282
733Q282 753 285 771T293 810Q291 819 285 824T271 834T257 843T247 857Q221 860 198 860Q158 860 120 854T42 847Q13 847 -15 853Q-29 848 -42 846T-69 839Q-77 851 -89 861T-102 888Q-102 897 -97 901T-85 907T-70 909H-56Q-46 909 -39 912T-26 925Q-23 920 -14
920Q-6 920 2 924T20 929Q26 929 28 927T35 925Q38 925 43 929T53 936Q58 938 65 938T78 937Q86 937 93 938T106 946H112Q138 946 164 950T218 955Q224 955 230 955T243 953Q246 955 250 956T257 957Q276 957 293 951T329 946Q341 935 351 924T379 910Q387 893
394 875T412 839Q410 829 410 822Q410 808 413 794T422 767Q414 740 405 711T393 652Q383 640 377 624T366 589T357 553T347 519Q352 505 363 496T387 479T415 468T443 462Q454 460 454 455T459 444H464Q477 444 485 440T499 429T511 415T526 404Q527 398 527 392T526
379Q526 375 526 371T530 361Z" />
<glyph unicode="~" glyph-name="asciitilde" horiz-adv-x="1120" d="M1049 401Q1028 380 1004 364T954 332T903 302T855 268Q831 263 809 256T762 244Q755 239 747 237T733 229Q717 229 703 225T674 217L653 215Q645 214 638 207T622 197Q617 198 612 198T602
199Q585 199 569 195T535 190Q507 190 492 199T466 223T445 254T417 283Q402 280 387 279T356 276Q349 276 342 276T328 275Q321 273 315 269T301 261T286 253T269 249Q260 249 252 254L230 225Q204 220 184 206T144 172H141Q129 172 118 167T95 156T71 145T44
139Q15 156 15 187Q15 204 20 221T30 254Q49 263 69 266T109 275Q127 293 148 306T192 331L237 354Q260 366 281 380Q295 381 313 382T351 387T387 395T417 409Q469 397 521 376Q525 362 533 352T546 330Q561 327 575 327Q592 327 608 330L674 344Q691 348 708
348Q713 348 717 348T726 347Q732 347 742 354T758 366Q781 369 803 375T848 390H856Q874 390 887 395T912 408T935 423T963 433L967 445Q969 451 973 455Q980 454 986 454H1000Q1008 454 1015 454T1030 455Q1036 442 1040 429T1049 401Z" />
<glyph unicode="&#xa0;" glyph-name="uni00A0" horiz-adv-x="420" />
<glyph unicode="&#xa1;" glyph-name="exclamdown" horiz-adv-x="335" d="M222 121Q222 100 218 91T206 65Q207 60 207 52Q207 38 203 24T199 -4Q187 -27 180 -52T165 -102T150 -151T127 -198Q127 -213 123 -227T118 -257V-265Q118 -269 120 -273Q109 -287 107
-307T105 -345Q100 -356 98 -368T91 -391Q92 -395 92 -399V-408Q92 -431 87 -453T82 -499Q82 -527 98 -546Q100 -556 100 -563Q100 -581 94 -597T88 -632Q79 -637 69 -641T47 -645Q35 -645 25 -640T6 -628T-11 -612T-27 -596Q-31 -581 -31 -562Q-31 -542 -28 -521T-25
-478Q-25 -472 -25 -466T-27 -453Q-16 -414 -12 -374T0 -295Q2 -281 4 -267T12 -240L23 -212Q25 -204 26 -195T30 -177Q34 -160 38 -144T48 -111Q58 -81 69 -52T89 8T104 69T110 132Q110 137 105 141T92 150T77 157T67 165Q66 167 66 173Q66 188 71 196T85 211T102
224T117 240Q123 237 130 237Q141 237 150 242T170 247Q182 247 189 237T206 222Q207 196 214 172T222 121ZM174 546Q174 526 167 516T151 499T135 485T127 466Q124 465 117 465Q101 465 94 474T77 495Q72 501 65 506T50 518T39 531T34 548Q34 553 35 557T38 566Q51
570 64 573T91 581Q100 590 106 600T127 612Q150 605 162 587T174 546Z" />
<glyph unicode="&#xa2;" glyph-name="cent" horiz-adv-x="771" d="M720 184Q720 171 709 161T692 139Q686 141 681 141Q675 141 669 140T656 139Q650 133 641 131T621 127T602 123T585 115Q550 113 513 106T441 89Q436 57 433 25T430 -39Q430 -65 431 -90T438
-140Q440 -153 450 -165T460 -187Q460 -198 452 -203T434 -212T416 -223T406 -241Q397 -235 391 -229L380 -218Q375 -213 368 -209T348 -202Q343 -149 338 -98T332 6Q332 22 332 37T334 68Q325 68 316 68T297 69Q285 69 266 68T238 57H216Q196 57 178 56T140 54Q99
54 72 70T27 112T1 171T-10 240Q9 285 35 327T94 404Q103 414 114 421T133 437Q144 450 152 461T180 476Q224 533 277 578T391 659Q398 727 400 794T410 929Q427 943 449 943Q457 943 469 941T488 936Q493 934 495 930L500 923Q503 920 506 918T517 918Q523 894
523 869Q523 831 515 795T506 720V710Q516 713 527 714T548 715Q558 715 571 714T595 707T614 694T622 672Q622 663 618 658T610 647T602 637T598 626Q598 617 603 609Q596 596 586 590T562 582T536 580T510 581Q502 572 497 561T484 542Q484 531 484 522T485 503Q485
486 483 475T474 447Q473 446 473 443Q473 438 476 436T481 430Q472 412 468 389T463 341T460 292T456 247Q454 236 452 227T450 207Q450 192 456 182H465Q474 182 483 185T502 188Q511 188 517 182Q525 188 537 191T559 194Q572 194 582 189Q599 199 620 203T662
207Q676 207 690 205T718 194Q720 186 720 184ZM374 516H362Q348 501 332 489T299 463T268 436T241 404Q233 406 230 402T219 397Q207 383 194 369T169 340Q159 327 146 314T122 287T103 258T95 224Q95 216 97 207L101 189Q123 172 149 162T204 152Q224 152 245
158Q256 151 273 151Q293 151 311 157T348 168V181Q348 210 354 239T360 297Q360 306 359 315T355 333Q363 351 366 374T371 422T372 471T374 516Z" />
<glyph unicode="&#xa3;" glyph-name="sterling" horiz-adv-x="948" d="M938 -7Q938 -16 935 -26Q923 -38 912 -51T889 -79Q868 -81 849 -86T810 -97Q803 -108 793 -114T770 -125T746 -135T724 -147Q718 -145 712 -143T697 -141Q686 -141 676 -145T655 -155Q624
-138 589 -124T519 -104Q514 -103 508 -103T496 -104Q486 -104 474 -103T455 -93Q404 -108 353 -116T249 -131Q235 -133 213 -136T178 -140Q170 -140 163 -135T148 -130Q143 -130 139 -133Q128 -128 123 -119T106 -104Q105 -94 105 -85T104 -66V-51Q104 -44 106
-36Q114 -33 118 -28T125 -14Q140 -12 150 -5T169 10T186 28T207 43Q210 58 218 68T234 87T249 108T257 136Q268 142 274 154T283 180T289 208T297 232Q293 248 294 264T286 294Q260 293 235 287T186 273T136 261T84 255Q66 255 49 259T17 272Q10 287 10 305Q10
322 17 337T40 362Q42 364 46 366T53 369Q57 370 62 370T72 370Q83 370 94 371T116 375Q151 380 185 387T254 397V401Q254 415 248 420T236 437Q238 442 238 447V457Q238 480 230 501T222 545Q222 555 225 566Q217 577 216 590T207 613Q212 627 212 641T211 669Q211
684 213 695T221 721Q222 722 222 725Q222 730 220 733T218 742Q218 748 225 761T241 788T259 816T271 836Q290 842 303 854T329 882Q336 883 345 887T364 895L380 903Q387 907 390 907Q395 907 395 903T400 896L426 922H432Q438 922 443 921T455 918Q458 926 465
927T480 929H494Q501 927 501 926T505 922Q510 920 519 920T536 921Q547 921 559 918Q566 909 575 902T594 889T612 876T627 857Q623 833 620 810T609 764Q605 763 601 763H595Q575 763 557 766T519 771Q518 783 510 789T498 807Q481 806 465 801T433 791T402 780T369
771Q343 743 334 706T324 633Q324 582 338 525T376 423Q381 422 387 422H398Q433 422 466 428T534 440Q536 441 539 441Q542 441 545 441T552 440H559Q567 442 575 442T593 443Q633 443 672 452T753 462Q759 462 765 459T770 447Q779 459 796 459Q810 459 822 456T849
453H859Q865 453 870 455Q873 450 876 445T879 433Q879 421 863 411T826 393T783 381T752 376Q738 376 727 380Q719 379 716 375T706 366Q702 367 696 367Q684 367 673 362T648 354Q638 352 625 351L600 350Q588 350 576 348T555 340Q512 338 473 331T393 308Q398
301 399 292T401 272V251Q401 241 404 232Q388 174 363 119T307 10Q311 7 318 7T332 6T345 5T354 0Q365 5 379 8T400 22Q436 25 469 25H487Q499 25 511 25T535 24T552 22Q562 19 573 13T594 1Q622 -13 651 -25T712 -37Q724 -37 735 -34T756 -27T777 -20T799 -18Q812
-7 828 -3T856 14Q859 13 862 13H869Q878 13 886 14T902 15Q918 15 935 10Q938 1 938 -7Z" />
<glyph unicode="&#xa4;" glyph-name="currency" horiz-adv-x="755" d="M724 771Q722 750 710 740T681 718Q655 679 624 643T563 570Q567 556 569 541T572 511Q572 456 550 405T499 309Q493 300 487 290T473 271Q469 266 463 262T452 254L429 237Q442 228 452 218T469
194Q499 188 527 178T587 167Q611 167 631 179Q640 177 650 172T670 167Q679 167 688 176Q690 173 692 169T700 164Q702 164 703 164T706 165V150Q706 130 710 115Q702 115 698 112T689 106T678 100T663 100Q656 99 655 94T648 86Q641 81 630 81T609 76Q592 75
575 75T541 74Q531 74 517 74T489 76T462 80T440 86Q408 100 380 122T324 167Q305 156 294 142Q262 131 231 119T167 95Q162 89 157 82T147 69Q147 61 144 56T138 47T131 38T127 25Q127 18 126 14Q118 11 106 10T81 7T59 0T44 -14Q37 -12 32 -11T19 -10Q14 -5 15
0T19 10T22 21T21 33Q20 40 23 46T26 60Q26 83 33 101T49 140L52 141Q43 156 29 171Q26 186 26 201Q26 226 33 246T50 290Q56 290 58 294T62 302T66 311T75 314Q83 334 92 354T115 392L114 395Q109 403 109 413T104 431Q99 441 91 450T83 471Q83 478 86 484Q75
495 71 510T66 542Q66 556 69 570T82 596H91Q96 596 96 599Q103 595 110 593T118 582Q134 581 154 574Q165 557 174 539T195 504Q208 518 222 531T244 565Q265 580 284 596T320 634Q326 632 330 632Q343 632 355 638T380 644Q397 644 413 640T447 635H454Q458 635
463 637Q476 632 495 627Q520 659 548 682V696Q564 706 576 719T599 747T620 777T645 804Q655 799 666 797T687 793T707 786T724 771ZM472 488Q472 507 466 522H456V515Q456 490 437 479T396 468Q388 468 384 469Q379 479 370 485T351 498Q322 484 302 462T265
414T230 365T187 322Q182 302 172 288T151 257Q152 255 153 252T154 246Q154 236 146 230T139 210Q156 205 167 205Q185 205 201 213T233 230T265 249T301 261Q315 278 329 289T366 304Q374 320 387 332T416 354Q423 370 432 386T451 418T466 452T472 488Z" />
<glyph unicode="&#xa5;" glyph-name="yen" horiz-adv-x="912" d="M871 349Q871 335 861 323T851 296Q851 289 854 283Q838 285 821 286T787 287Q752 287 718 285T649 283Q645 283 639 285T628 290Q610 279 590 276T548 272T508 269T474 254V243Q474 234 473 225T463
211Q466 202 466 190Q466 172 461 154T455 118V111Q455 108 456 103H461Q473 103 485 100T511 96Q534 96 555 103T600 110Q623 110 633 98T646 65Q643 62 638 60T629 55T622 49T621 39Q598 31 575 26T529 17T483 6T438 -11Q435 -21 433 -30T431 -50Q431 -65 436
-77T456 -97Q447 -106 447 -116Q447 -129 455 -142T464 -172Q464 -177 463 -181T460 -190Q462 -194 466 -195T473 -198T480 -202T484 -209Q476 -226 467 -242T453 -276Q443 -277 437 -282T424 -292T412 -303T395 -309Q388 -306 384 -302T375 -292T365 -283T352
-276Q346 -259 342 -240T327 -205Q334 -181 334 -154Q334 -125 329 -95T327 -36Q325 -33 323 -32T319 -26H312Q309 -26 305 -26T298 -22Q292 -24 289 -28T281 -36Q257 -40 233 -46T186 -59T139 -71T90 -79Q81 -76 76 -69T67 -53T60 -35T50 -18Q54 1 67 14T97 36H101Q105
36 108 34T115 32H119Q147 38 174 44T230 50Q255 59 281 66T334 75Q344 104 348 135T358 197Q360 202 361 209T362 222Q362 227 358 229T352 237Q337 234 318 233T279 229T242 222T212 208Q209 208 207 208T201 209Q184 209 166 203T140 179Q132 181 127 181Q118
181 111 178T95 171T79 164T59 160Q51 160 47 161Q43 169 41 179T27 190Q20 190 18 189Q15 202 15 214Q15 232 21 249T40 280Q61 281 81 287T122 299T163 310T205 315Q219 322 236 324T271 330T303 340T327 361Q335 361 337 354T347 347H352Q357 354 361 363T365
380Q365 403 349 421T312 444Q300 473 283 498T249 551Q241 565 235 578T223 606Q220 612 215 614T205 621V635Q183 665 167 699T130 764Q122 769 117 774T100 781Q100 798 93 811T86 842Q86 847 88 852T90 863Q90 873 84 876T77 886Q77 890 80 893Q91 895 102
899T119 914Q140 912 163 910T205 896Q221 866 235 840T255 778Q263 773 267 768T281 760Q287 735 298 713T322 669Q327 659 330 649T338 631Q340 626 345 620T353 609Q370 587 387 566T431 530Q459 557 477 590T510 659Q522 662 528 670T541 686T554 702T574 710Q586
735 605 754T645 791T685 828T718 871Q711 888 712 907T707 943Q714 943 717 941T725 936Q734 951 749 959T783 968Q817 968 837 944T858 888Q858 877 855 872T849 863T844 855T844 843Q839 838 833 836T822 831Q799 806 775 782T725 735Q717 714 704 698T671 671Q672
669 672 666Q672 660 669 655T668 645Q658 640 650 635T632 628Q602 581 578 532T524 437Q516 437 513 432T499 430Q491 418 491 404T488 376Q533 378 577 379T667 381Q689 381 715 381T761 373Q766 374 771 374T782 375Q805 375 826 368T868 361Q871 355 871 349Z"
/>
<glyph unicode="&#xa6;" glyph-name="brokenbar" horiz-adv-x="336" d="M175 -179Q172 -197 162 -207T138 -221T109 -225T78 -225Q75 -221 69 -216T56 -204L44 -192Q39 -187 38 -182Q37 -178 37 -173T36 -163Q30 -121 30 -81T32 2Q35 9 42 21T50 40Q51 46 50 53T49
67V93Q49 106 50 119Q53 149 60 184T82 246Q90 248 98 249T114 250Q130 249 145 241T173 224Q175 210 180 198T187 172Q183 164 181 155T173 138Q174 117 173 95Q169 53 160 14T147 -67Q144 -98 149 -127T175 -179ZM244 720Q239 718 235 716T229 710Q233 682 230
651Q228 631 226 612T221 572Q220 562 220 552T221 531Q213 529 208 522T201 506Q201 494 210 489Q204 478 196 471T179 457T162 442T150 422Q148 423 145 424T140 425Q135 426 130 424T120 422L111 425Q91 463 92 508T97 595Q97 600 92 600T86 607Q87 611 92 621T100
635Q98 639 98 643V652Q100 675 111 697T124 748Q125 756 120 759T115 770Q122 787 123 805T126 840Q128 860 132 877T152 908Q158 909 164 909H179Q204 906 223 895Q234 851 238 808T244 720Z" />
<glyph unicode="&#xa7;" glyph-name="section" horiz-adv-x="1198" d="M1085 65Q1085 57 1083 51T1083 36Q1079 32 1069 32Q1064 -6 1044 -33T991 -81Q984 -86 977 -89T962 -97Q956 -101 951 -107T940 -119Q904 -131 868 -147T801 -187Q798 -186 794 -186Q786
-186 781 -191T768 -195Q762 -200 754 -203L739 -209Q732 -212 725 -216T714 -226Q709 -223 701 -223Q693 -223 687 -227T674 -235T659 -243T639 -245Q633 -252 625 -255T609 -261T592 -265T578 -273Q574 -276 573 -280T567 -288Q564 -290 554 -290T539 -291Q521
-295 505 -302T470 -316H460Q442 -326 431 -341T410 -374Q394 -378 380 -383T349 -388Q332 -388 324 -379T316 -352Q307 -352 302 -347T293 -335L286 -322Q283 -316 276 -312Q283 -300 291 -289T305 -266Q343 -251 382 -240T460 -215T537 -187T610 -151H628Q633
-147 635 -140Q682 -129 736 -107T833 -61Q835 -60 835 -59T838 -58Q840 -58 841 -59T847 -61Q861 -51 877 -43T910 -25T940 -4T966 22Q949 31 928 36T884 43T839 47T797 50Q792 54 785 55T770 57Q753 57 739 50Q723 57 704 60T668 63Q657 63 646 62T625 57Q600
70 571 70Q554 70 531 65Q523 73 514 76T493 81T471 83T449 86Q418 91 398 107T352 139Q335 165 324 192T312 251V261Q321 265 326 272T334 289T339 308T345 326Q390 364 432 405T520 483Q456 497 392 497T262 498Q256 498 248 500T232 505Q214 508 195 512T157
524T123 541T94 566Q87 589 78 610T61 652Q73 677 91 696T130 729T176 753T226 771Q258 799 293 814T367 846Q375 850 378 856T388 867H406Q438 882 466 899T523 933T582 962T649 982Q655 990 665 995T685 1001Q692 1001 699 996Q715 1013 736 1013Q748 1013 759
1011T782 1008Q792 1008 801 1011Q814 1008 822 1002T847 996Q853 979 856 963T861 929Q856 925 851 917T840 902T828 888T815 882Q805 882 801 887T790 896Q786 895 786 891V886Q778 888 775 895T764 903Q748 903 733 899T702 891T671 883T639 879Q616 867 593
857T546 838Q534 833 521 831T496 824Q488 822 480 817T464 808Q446 799 429 791T391 778Q367 758 340 744T284 715T229 684T180 645Q188 625 209 615T253 604Q268 604 281 609Q286 604 293 602T309 599T325 595T338 588Q363 593 385 593Q398 593 411 592T438 585H465Q517
585 567 582T669 578Q699 578 729 575T790 570Q809 569 829 569T868 563Q876 561 881 556T894 549Q900 547 907 547H923Q933 547 938 545T946 541T951 536T957 534Q962 534 965 534T971 535Q977 535 984 531T1000 521T1018 511T1037 505Q1044 488 1044 466Q1044
449 1042 434T1040 401Q1040 393 1031 380T1019 354Q998 344 990 331T969 308Q966 306 962 305T954 301Q938 293 921 285T894 261Q881 262 874 262T863 260T854 254T840 244H822Q772 222 720 209T617 175Q621 165 631 165H649Q655 165 661 164T671 158Q689 161
709 161Q727 161 745 159T782 157Q800 157 815 161Q817 158 821 156T829 151Q839 153 844 153Q857 153 869 149T895 144Q899 144 902 145T910 146Q918 146 918 141T930 136H942Q973 136 1004 127T1062 103V97Q1062 87 1069 85T1083 79Q1084 75 1084 72T1085 65ZM944
419Q930 422 918 428T893 441T868 452T840 457H830Q826 457 822 455Q816 463 806 466T782 471T757 473T735 476Q731 467 725 460T711 444Q700 441 691 436T674 425T657 415T635 409Q632 403 625 397T611 386T596 377T582 369Q574 367 568 365T554 358Q521 341 498
315T449 265Q443 243 431 222Q436 218 439 213T449 204Q453 226 470 234T506 251Q510 250 518 250Q531 250 543 253T565 261T586 270T606 274Q616 274 621 272Q632 285 645 285Q650 285 656 283Q676 299 703 306T759 320T814 334T858 361Q869 364 881 369T901 383H919Q925
392 931 401T944 419Z" />
<glyph unicode="&#xa8;" glyph-name="dieresis" horiz-adv-x="623" d="M164 916Q164 900 159 885T142 858Q142 857 142 856T141 854Q141 849 146 847T150 839V837Q145 829 137 827T128 815Q111 819 96 825T62 831H54Q50 831 45 829Q44 843 37 852T22 869T7 885T0
907Q0 913 2 923Q16 934 25 947T42 977H45Q58 977 63 985T74 1001Q79 1002 83 1003T92 1005Q98 1005 100 1001T102 991Q108 989 111 989Q114 989 117 990T124 991Q145 981 154 960T164 916ZM623 951Q619 943 615 936T611 919Q611 910 615 905Q604 887 593 874T577
837Q572 839 569 841T560 843Q555 843 552 841T544 837Q540 841 536 844T526 851Q522 849 519 847T510 845Q501 845 493 849T475 853Q473 853 465 851Q465 853 465 855T466 860Q466 880 459 898T451 938V941Q456 943 460 948T471 954Q476 954 479 951Q481 960 486
964T497 970T509 974T522 980Q526 983 527 985T530 988T534 990T544 991Q555 991 565 986T584 974L603 961Q613 955 623 951Z" />
<glyph unicode="&#xa9;" glyph-name="copyright" horiz-adv-x="1612" d="M1468 439Q1458 417 1458 397Q1458 391 1459 386T1464 375Q1460 361 1456 347T1451 319Q1451 314 1451 311T1454 303Q1443 279 1436 254T1425 203Q1411 190 1401 174T1379 143T1355 114T1324
92Q1321 84 1319 76T1314 59Q1310 61 1307 61Q1300 61 1296 54T1288 41Q1274 41 1265 35T1242 27Q1218 4 1193 -13T1135 -38Q1125 -47 1113 -53T1086 -64L1059 -75Q1046 -81 1034 -88Q1030 -88 1027 -89T1020 -90Q1016 -90 1013 -89T1006 -88Q993 -95 983 -104T958
-120Q946 -126 933 -127T905 -134Q885 -142 866 -151T826 -167Q815 -170 805 -171T783 -177Q773 -181 765 -187T748 -196Q734 -199 721 -198T693 -199Q673 -203 661 -208T625 -213Q621 -213 610 -219T593 -227Q560 -230 527 -230T461 -231Q426 -231 392 -231T322
-230Q314 -230 298 -231T273 -231Q265 -230 257 -226T240 -218Q191 -198 150 -169T77 -97L69 -87Q65 -82 62 -77Q60 -72 59 -66T56 -54Q51 -37 45 -21T27 9Q26 23 26 36T23 62Q22 67 19 76T15 88Q15 121 25 149T37 207Q42 212 46 219T55 231Q65 266 80 298T116
359Q124 370 132 381T148 403Q151 409 153 416T156 429Q190 464 215 505T263 590Q287 613 307 637T342 690Q368 712 392 734T431 787Q451 799 465 813T503 835Q559 887 621 922T759 975Q770 977 783 981T808 985Q815 985 825 984T841 978Q853 986 865 986T891 988Q901
1002 911 1014T934 1038Q951 1046 971 1048T1011 1051H1029Q1039 1051 1049 1050Q1058 1049 1065 1045T1080 1037T1094 1028T1111 1024Q1117 1024 1127 1028Q1148 1008 1176 997T1231 978Q1244 968 1254 960T1281 949Q1284 938 1290 930T1305 915T1323 902T1338
888Q1360 862 1375 833T1410 777Q1415 745 1424 714T1436 651Q1449 631 1452 604T1455 548T1457 491T1468 439ZM1425 432Q1425 464 1421 494T1416 556Q1416 568 1417 580T1421 604Q1411 625 1407 644T1404 687Q1393 718 1381 747T1353 806Q1329 806 1331 830Q1320
835 1311 842T1299 863Q1279 870 1264 883T1238 913H1235Q1231 913 1228 911T1221 909H1217Q1204 922 1190 928T1159 937L1127 943Q1111 946 1095 952H1090Q1074 952 1059 955T1028 959Q1011 959 998 952Q984 932 971 913T957 866Q957 851 963 838Q955 829 950
814T934 795Q929 793 924 792T914 791Q910 791 908 792Q897 801 891 817T882 852T875 888T869 921H865Q832 921 801 913T740 892T682 862T625 828Q613 821 600 814T574 799Q568 794 564 786T553 773Q546 768 536 763T517 755Q496 723 468 698T410 647Q410 643 409
641T405 637T402 631T402 623Q401 623 400 623T398 624Q393 624 391 620T385 615Q373 594 358 575T328 538T299 500T273 458Q261 455 257 443T242 425Q230 395 213 368T179 313T148 258T127 196Q119 195 119 188T113 178Q116 170 116 163Q116 149 111 138T105 113Q105
90 112 74T127 38Q130 30 131 20T137 2Q141 -4 148 -8T159 -19Q162 -25 167 -33T180 -49T193 -64T206 -74Q211 -76 217 -76T227 -77Q230 -79 232 -84T238 -91Q247 -99 260 -103T287 -111T316 -117T342 -120Q357 -130 376 -134T417 -140T458 -142T496 -141Q501 -141
503 -137T510 -131Q517 -136 529 -136Q542 -136 553 -133T578 -129Q583 -129 589 -131Q603 -123 617 -123T646 -120Q657 -118 666 -113T686 -105Q698 -103 711 -104T736 -102Q746 -100 754 -96T772 -88Q787 -83 803 -83T834 -77Q843 -73 850 -66T869 -55Q883 -51
896 -52T923 -48Q932 -44 939 -38T955 -27Q973 -19 992 -15T1027 2Q1034 4 1041 4T1056 5Q1066 14 1076 21T1100 30Q1103 31 1106 31T1113 31Q1118 32 1118 38T1123 45Q1128 45 1132 43T1141 41H1145Q1150 52 1160 59T1182 71T1206 83T1228 99Q1230 101 1232 101Q1234
101 1236 100T1242 98Q1244 98 1245 99Q1246 104 1247 110T1252 121Q1281 128 1298 146T1331 188Q1336 188 1336 196T1335 207V210Q1351 212 1360 221T1377 241T1389 265T1404 289Q1403 294 1403 303Q1403 319 1406 335T1414 367T1421 399T1425 432ZM1159 224Q1124
184 1076 159T980 110H976Q962 110 950 108T927 99Q881 94 837 88T748 81Q696 81 643 95Q640 100 635 102T625 110Q608 113 590 117T557 131Q548 137 541 144T526 160T511 174T493 185Q488 206 480 225T464 262T451 300T445 343Q445 362 452 378T457 415Q472 450
495 477T547 527T607 568T672 604Q687 612 703 621T736 637Q743 640 759 643T794 648T830 652T856 654Q871 654 888 653T920 647Q931 644 940 641T963 637Q970 632 975 626T987 615V611Q987 604 989 599L994 590Q997 586 999 581T1002 567Q1002 551 996 542T984
518Q969 507 950 502T912 494Q897 499 887 505T858 511Q863 521 864 532T869 554Q851 561 828 561Q803 561 780 551T736 525Q733 526 730 527T722 529Q719 529 718 528L715 525Q691 509 666 498T617 465Q603 452 592 436T564 408Q551 371 551 338Q551 324 552 310T557
282Q559 273 565 267T577 255T589 242T596 224Q602 217 611 212L629 203Q638 199 645 194T657 178H665Q678 178 689 175T711 167T732 159T754 155Q764 155 776 160Q787 155 799 154T822 150Q840 157 860 157Q871 157 881 156T902 155Q916 155 926 158T944 165T959
172T975 175Q981 175 986 174T998 173Q1009 173 1013 179T1023 185Q1026 185 1030 181Q1044 187 1054 197T1077 214Q1086 208 1099 208Q1114 208 1129 215T1159 224Z" />
<glyph unicode="&#xaa;" glyph-name="ordfeminine" horiz-adv-x="586" d="M575 647Q570 624 567 602T557 557Q552 541 547 526T532 497Q521 478 511 458T500 414Q495 405 490 397T482 378Q488 362 496 348T504 315V306Q493 296 483 288T468 263L463 264Q454 264
446 261T428 254T411 246T393 242H389Q360 271 360 314Q360 341 370 368T396 418Q394 424 393 430T389 442Q378 450 366 453T342 461Q319 456 297 452T251 443Q241 441 232 440T213 435Q205 433 196 427T178 414T159 400T141 389Q136 377 136 366Q136 343 151 330T180
303Q190 305 197 305Q213 305 228 299T259 293Q272 293 282 303Q302 294 316 278T331 238Q331 226 328 217Q316 212 303 207T285 188Q272 193 261 196T236 200Q222 200 213 196Q190 197 172 201T137 212T102 228T66 246Q58 264 48 282T23 313Q26 317 26 323Q26
331 20 338T12 353Q10 358 10 365V377Q10 407 22 436T55 485Q81 494 106 506T158 527Q172 532 185 534T213 540Q221 542 231 548T246 561Q254 554 270 554Q278 554 287 556T303 565Q319 561 338 558T376 551T412 539T442 518Q451 522 456 531T464 550T471 569T482
586Q484 603 487 620T490 654Q490 657 490 661T489 669Q487 677 476 680T458 683Q452 683 445 681T435 673Q423 677 404 677Q385 677 364 672T325 658H318Q306 658 293 654T267 645T240 635T213 626Q207 624 206 620T203 611Q189 610 180 605T161 593T143 580T120
572Q111 581 104 592T87 611Q95 625 95 636T94 662Q98 661 100 663T105 668T108 674T113 680Q115 678 119 679T126 680Q131 680 130 676Q138 684 144 692T159 705Q173 713 190 717T223 726Q228 728 234 729T246 733Q248 735 251 741T256 748Q259 748 260 744T270
740Q273 740 279 744T293 749Q299 749 303 744Q332 756 361 767T422 779Q435 779 450 776Q461 786 478 786Q498 786 517 778T554 759Q553 756 553 751Q553 737 559 731T568 716Q570 709 569 700T567 683Q567 675 568 665T575 647Z" />
<glyph unicode="&#xab;" glyph-name="guillemotleft" horiz-adv-x="1026" d="M540 500Q518 455 488 417T417 351Q406 344 396 339T375 328Q368 323 357 315T342 299H337Q319 299 308 292T287 276T267 258T242 246Q235 234 225 226T203 209T183 192T170 167Q180
152 195 143T227 127T258 111T285 88Q296 88 305 84T325 73T347 63T375 59Q386 46 402 40T435 31Q431 21 431 14Q431 -1 442 -10T457 -34Q451 -42 446 -50T432 -62Q427 -61 422 -61T412 -60Q403 -60 393 -62T375 -70Q371 -71 369 -69T366 -64T362 -58T356 -55Q353
-57 349 -56T341 -55Q335 -55 335 -59Q330 -51 321 -48T302 -42T284 -35T273 -19Q222 -10 175 12T80 55Q72 68 61 79T40 103T22 130T15 161Q15 170 18 177T25 190T34 202T41 217Q54 219 64 227T82 243T100 259T120 267Q146 296 178 316T245 353Q259 370 277 383T312
410T345 439T371 475Q382 478 389 485T401 501T412 518T428 532Q430 550 439 561T454 590Q459 594 466 596T480 599Q501 599 517 584T540 550L536 534Q534 526 534 518Q534 509 540 500ZM954 -12Q954 -34 937 -45Q931 -45 926 -42L917 -37Q913 -35 908 -34T894
-34Q889 -33 884 -29T874 -21T864 -14T855 -12Q847 7 830 16T793 32T754 47T722 70Q720 70 718 70T714 69Q703 69 695 73L678 81Q669 86 659 89T633 91Q619 105 601 109T564 113Q546 131 528 136T489 153Q489 161 482 163Q481 168 481 173T480 183Q480 211 489
229T511 270Q549 296 580 328T636 399H638Q643 399 644 402T654 403Q658 412 657 421Q675 431 689 445T716 475T742 505T772 532Q784 531 792 526T812 518Q812 509 808 504T801 489Q806 476 806 464Q806 455 805 446T801 428Q794 425 790 421T780 412T770 404T755
399Q741 376 724 356T689 316T652 276T618 234Q634 221 656 216T697 206Q708 188 728 183T769 177V174Q769 171 770 169T772 163Q786 161 795 155T814 141T833 127T858 120Q859 115 857 113T855 105Q863 101 868 99T884 98Q886 85 895 78T915 65T934 52T943 32Q943
29 943 26T941 19Q954 7 954 -12Z" />
<glyph unicode="&#xac;" glyph-name="logicalnot" horiz-adv-x="1097" d="M984 270Q970 213 952 156T908 45V28Q908 20 906 14T902 4T899 -5T898 -16Q892 -21 885 -23T872 -28T859 -32T848 -41Q843 -41 840 -41T831 -40Q818 -40 812 -52Q804 -48 798 -41T783 -31Q780
-20 778 -9T776 14Q776 37 782 60T794 105Q810 120 814 147T819 196Q796 205 772 205Q740 205 712 191Q686 202 654 202Q629 202 605 198T554 194Q521 194 493 206Q467 195 433 195Q416 195 399 197T364 200Q354 200 356 191Q348 194 340 195T324 196Q296 196 270
191T216 186Q207 186 198 187T180 191Q159 183 133 177T84 171Q58 171 37 181T15 223Q15 240 23 250T44 270Q82 274 119 283T194 292Q212 292 230 289Q246 294 266 294T305 295T344 297T378 306Q384 304 389 302T401 300Q408 300 414 303Q417 299 417 295T421 285Q429
290 435 296T450 306Q451 305 456 304T467 301T478 300T486 299Q492 299 494 303T501 306H503Q505 303 508 302T514 301Q520 301 526 302T540 303Q560 303 581 302T624 301Q656 301 689 303T755 313Q765 310 779 310Q793 310 806 314T834 325Q839 323 843 322T853
321Q864 321 873 325T893 333T913 342T934 346Q937 335 942 329T952 316T962 302T966 278Q966 272 974 273T984 270Z" />
<glyph unicode="&#xad;" glyph-name="sfthyphen" horiz-adv-x="795" d="M713 297Q703 296 696 292T680 286Q681 285 681 283Q681 277 678 275T677 264Q662 256 646 252T614 245T581 238T551 225V236Q539 229 528 229Q518 229 509 232T489 236Q484 236 476 232Q466
233 461 237T447 247Q442 237 433 235T415 232Q404 232 395 233T376 236Q360 231 346 231T316 230Q302 230 290 229T264 221Q260 231 247 231Q241 231 235 231T222 230Q212 230 207 236Q203 234 203 229T203 221Q188 227 171 227Q157 227 144 224T118 221Q111 221
104 223T92 225Q86 225 83 223T78 218T72 213T62 210Q51 210 47 216T35 225Q35 235 32 243T25 259T18 276T15 294Q15 297 15 300T16 307Q30 327 56 335T105 344Q116 344 121 340T135 329Q205 337 275 340T416 347Q439 349 462 350T508 354Q511 354 512 356T513
362T515 367T521 369Q532 369 536 363T548 354Q555 358 564 360T583 363T600 367T615 376Q623 377 624 373T630 366Q635 367 641 368T652 370H659Q663 370 666 369Q675 349 689 333T713 297Z" />
</font>
</defs>
</svg>
